007: СПЕКТР / Spectre (2015) HDRip [H.264] [Line]

Ответить на тему

Статистика раздачи [Обновить пиров]
Размер:  2.56 GB   |    Зарегистрирован:  10 месяцев 16 дней   |    Скачан:  5 раз

Полного источника не было: 1 час 19 минут

 
 
 
 
Автор Сообщение

BiOS ®

Стаж: 2 года 7 месяцев

Сообщений: 1733

Откуда: Raccoon City


Пост 19-Янв-2016 18:41

[Цитировать]

007: СПЕКТР / Spectre - Производство: США, Великобритания, B24, Columbia Pictures, Danjaq
Жанр: Боевик, Приключения, Детектив
Режиссер: Сэм Мендес
Продюсер: Барбара Брокколи, Майкл Дж. Уилсон, Закария Алауи
Актеры: Дэниэл Крэйг, Кристоф Вальц, Леа Сейду, Рэйф Файнс, Моника Беллуччи, Бен Уишоу, Наоми Харрис, Дэйв Батиста, Эндрю Скотт, Рори Киннер
Описание:
Таинственное послание из прошлого Бонда выведет его к зловещей террористической организации «Спектр». Пока М участвует в политических баталиях, отстаивая интересы MI6, Бонд приоткрывает завесу лжи, чтобы раскрыть ужасную правду, скрываемую «Спектром».
Рейтинг MPAA: PG-13
Возраст: 16+
Дата мировой премьеры: 23 октября 2015
Дата премьеры в России: 6 ноября 2015, «WDSSPR»
Продолжительность: 02:28:06
Качество видео: HDRip
Перевод: Дублированный (Чистый звук)
Вид субтитров: Вшитые отключаемые
Язык субтитров: Английский (Forced)
Примечание: Отсутствует любого рода реклама!
Видео: AVC/H.264, 1024x428 (2.40:1), 1900 kb/s, 23.976 fps
Аудио »1: 48 kHz, AC3 Dolby Digital, 2/0 (L,R) ch, ~192 kbps (Русский/Официальный)
Аудио »2: 48 kHz, AC3 Dolby Digital, 3/2 (L,C,R,l,r) + LFE ch, ~384 kbps (Английски)
Сэмпл: Скачать

Награды

Оскар, 2016 год
Номинации (1):
  • Лучшая песня
Золотой глобус, 2016 год
Победитель (1):
  • Лучшая песня — «For 'Writing's on the Wall'»

MI

Код:
Общее
Уникальный идентификатор                 : 193527840440894871786394673726052068925 (0x91981B3654AC05809EDF65490CEB6E3D)
Полное имя                               : С:\007 СПЕКТP
Формат                                   : Matroska
Версия формата                           : Version 2
Размер файла                             : 2,56 Гбайт
Продолжительность                        : 2 ч. 28 м.
Общий поток                              : 2476 Кбит/сек
Название фильма                          : 007.СПЕКТP.2015.HDRip.nnm-club
Дата кодирования                         : UTC 2016-01-18 15:59:08
Программа кодирования                    : mkvmerge v8.3.0 ('Over the Horizon') 64bit
Библиотека кодирования                   : libebml v1.3.1 + libmatroska v1.4.2
Видео
Идентификатор                            : 1
Формат                                   : AVC
Формат/Информация                        : Advanced Video Codec
Профиль формата                          : High@L4.1
Параметр CABAC формата                   : Да
Параметр ReFrames формата                : 11 кадров
Идентификатор кодека                     : V_MPEG4/ISO/AVC
Продолжительность                        : 2 ч. 28 м.
Битрейт                                  : 1900 Кбит/сек
Ширина                                   : 1024 пикселя
Высота                                   : 428 пикселей
Соотношение сторон                       : 2,40:1
Режим частоты кадров                     : Постоянный
Частота кадров                           : 23,976 кадра/сек
Стандарт вещания                         : Component
Цветовое пространство                    : YUV
Субдискретизация насыщенности            : 4:2:0
Битовая глубина                          : 8 бит
Тип развёртки                            : Прогрессивная
Бит/(Пиксели*Кадры)                      : 0.181
Размер потока                            : 1,91 Гбайт (75%)
Заголовок                                : 007.СПЕКТP.2015.HDRip.nnm-club
Библиотека кодирования                   : x264 core 144 r2525
Настройки программы                      : cabac=1 / ref=11 / deblock=1:-2:-2 / analyse=0x3:0x112 / me=umh / subme=9 / psy=1 / psy_rd=1.00:1.00 / mixed_ref=0 / me_range=16 / chroma_me=1 / trellis=1 / 8x8dct=1 / cqm=0 / deadzone=21,11 / fast_pskip=1 / chroma_qp_offset=-4 / threads=6 / lookahead_threads=1 / sliced_threads=0 / nr=0 / decimate=1 / interlaced=0 / bluray_compat=0 / constrained_intra=0 / bframes=11 / b_pyramid=2 / b_adapt=2 / b_bias=6 / direct=3 / weightb=0 / open_gop=0 / weightp=1 / keyint=239 / keyint_min=23 / scenecut=49 / intra_refresh=0 / rc_lookahead=40 / rc=2pass / mbtree=1 / bitrate=1900 / ratetol=1.0 / qcomp=0.80 / qpmin=4 / qpmax=69 / qpstep=11 / cplxblur=20.0 / qblur=0.5 / ip_ratio=1.00 / aq=3:1.00
Default                                  : Да
Forced                                   : Нет
Цветовой диапазон                        : Limited
Аудио #1
Идентификатор                            : 2
Формат                                   : AC-3
Формат/Информация                        : Audio Coding 3
Расширение режима                        : CM (complete main)
Параметр Endianness формата              : Big
Идентификатор кодека                     : A_AC3
Продолжительность                        : 2 ч. 28 м.
Вид битрейта                             : Постоянный
Битрейт                                  : 192 Кбит/сек
Каналы                                   : 2 канала
Расположение каналов                     : Front: L R
Частота                                  : 48,0 КГц
Метод сжатия                             : С потерями
Задержка видео                           : -83 мс.
Размер потока                            : 203 Мбайт (8%)
Заголовок                                : Line
Язык                                     : Russian
Default                                  : Да
Forced                                   : Нет
Аудио #2
Идентификатор                            : 3
Формат                                   : AC-3
Формат/Информация                        : Audio Coding 3
Расширение режима                        : CM (complete main)
Параметр Endianness формата              : Big
Идентификатор кодека                     : A_AC3
Продолжительность                        : 2 ч. 28 м.
Вид битрейта                             : Постоянный
Битрейт                                  : 384 Кбит/сек
Каналы                                   : 6 каналов
Расположение каналов                     : Front: L C R, Side: L R, LFE
Частота                                  : 48,0 КГц
Метод сжатия                             : С потерями
Задержка видео                           : -83 мс.
Размер потока                            : 407 Мбайт (16%)
Заголовок                                : Original
Язык                                     : English
Default                                  : Нет
Forced                                   : Нет
Текст
Идентификатор                            : 4
Формат                                   : UTF-8
Идентификатор кодека                     : S_TEXT/UTF8
Идентификатор кодека/Информация          : UTF-8 Plain Text
Заголовок                                : Forced
Язык                                     : English
Default                                  : Нет
Forced                                   : Нет
Меню
00:00:00.000                             : en:00:00:00.000
00:06:09.119                             : en:00:06:09.119
00:13:04.784                             : en:00:13:04.784
00:18:58.471                             : en:00:18:58.471
00:24:46.777                             : en:00:24:46.777
00:28:04.057                             : en:00:28:04.057
00:32:15.559                             : en:00:32:15.559
00:36:58.591                             : en:00:36:58.591
00:41:56.639                             : en:00:41:56.639
00:46:13.145                             : en:00:46:13.145
00:50:51.924                             : en:00:50:51.924
00:53:43.220                             : en:00:53:43.220
01:00:21.368                             : en:01:00:21.368
01:06:48.213                             : en:01:06:48.213
01:10:58.963                             : en:01:10:58.963
01:15:14.093                             : en:01:15:14.093
01:18:55.648                             : en:01:18:55.648
01:26:11.041                             : en:01:26:11.041
01:29:40.000                             : en:01:29:40.000
01:36:43.548                             : en:01:36:43.548
01:41:44.390                             : en:01:41:44.390
01:49:06.415                             : en:01:49:06.415
01:55:52.821                             : en:01:55:52.821
01:59:39.214                             : en:01:59:39.214
02:04:19.744                             : en:02:04:19.744
02:09:28.511                             : en:02:09:28.511
02:14:05.663                             : en:02:14:05.663
02:19:42.374                             : en:02:19:42.374
-Скриншоты:


Смотреть онлайн

[trackeroc.ru].11077.torrent 
Торрент: Зарегистрирован   [ 2016-01-19 18:41 ]

Скачать торрент

14 KB

Статус: проверено
Скачан: 24 раз
Размер: 2.56 GB
 

Admin (19-янв-16)
Похожие торренты
Форум Тема Автор Размер
Боевики 007: СПЕКТР / Spectre (2015) HDRip | Чистый звук Admin 1.37 GB

_________________
[Профиль] [ЛС]
Показать сообщения:    
Ответить на тему

Текущее время: Сегодня 04:19

Часовой пояс: GMT + 4



Вы не можете начинать темы
Вы не можете отвечать на сообщения
Вы не можете редактировать свои сообщения
Вы не можете удалять свои сообщения
Вы не можете голосовать в опросах
Вы не можете прикреплять файлы к сообщениям
Вы можете скачивать файлы