100ЯНОВ (30.12.2019) SATRip скачать торрент

Reply to topic

DL-List and Torrent activity [Update пиров]
Size:  887 MB   |    Registered:  28 days   |    Completed:  0 times
Seeders:  2  [  72 KB/s  ]   Show peers in full details
 
 
 
 
Author Message

BiOS ®

Longevity: 5 years 9 months

Posts: 2408

Location: Earth


Post 31-Dec-2019 05:31

[Quote]

100ЯНОВ - Телекомпания: Россия / ВГТРК, М-Продакшн Медиа
Жанр: Комедия, юмор, скетч-шоу
Режиссер: Юрий Стоянов
Актеры: Юрий Стоянов, Виктор Сухоруков, Владимир Меньшов, Мария Аронова, Михаил Ефремов, Игорь Золотовицкий, Сергей Шнуров, Григорий Сиятвинда, Андрей Мерзликин, Ян Цапник и др.
Описание:
До зимних праздников осталось совсем чуть-чуть, и теперь главная задача каждого россиянина, несомненно, одна – весело встретить Новый год. Повысить градус настроения поможет мастер пародий и перевоплощений Юрий Стоянов. Блестящие импровизации, скетчи и пародии – вот что ждет зрителя в предпраздничный вечер.
Продолжительность: 01:05:08
Качество видео: SATRip
Субтитры: Отсутствуют
Видео: Xvid, 720x400 (16:9), ~1700 Kbps
Аудио: MP3, 2 ch, 192 Kbps

MediaInfo:

Общее
Полное имя : Т:\100ЯНОВ (30.12.2019).avi
Формат : AVI
Формат/Информация : Audio Video Interleave
Размер файла : 887 Мбайт
Продолжительность : 1 ч. 5 м.
Общий поток : 1904 Кбит/сек
Название фильма : S01 E03 # from 7turza #
Программа кодирования : Lavf58.29.100
Видео
Идентификатор : 0
Формат : MPEG-4 Visual
Профиль формата : Advanced Simple@L5
Настройки формата : BVOP1
Параметр BVOP формата : 1
Параметр QPel формата : Нет
Параметр GMC формата : Без точки перехода
Параметр матрицы формата : Default (H.263)
Идентификатор кодека : XVID
Идентификатор кодека/Подсказка : XviD
Продолжительность : 1 ч. 5 м.
Битрейт : 1699 Кбит/сек
Ширина : 720 пикселей
Высота : 400 пикселей
Соотношение сторон : 16:9
Частота кадров : 25,000 кадров/сек
Цветовое пространство : YUV
Субдискретизация насыщенности : 4:2:0
Битовая глубина : 8 бит
Тип развёртки : Прогрессивная
Метод сжатия : С потерями
Бит/(Пиксели*Кадры) : 0.236
Размер потока : 792 Мбайт (89%)
Библиотека кодирования : XviD 67
Аудио
Идентификатор : 1
Формат : MPEG Audio
Версия формата : Version 1
Профиль формата : Layer 3
Настройки формата : Joint stereo / MS Stereo
Идентификатор кодека : 55
Идентификатор кодека/Подсказка : MP3
Продолжительность : 1 ч. 5 м.
Вид битрейта : Постоянный
Битрейт : 192 Кбит/сек
Каналы : 2 канала
Частота : 48,0 КГц
Метод сжатия : С потерями
Размер потока : 89,5 Мбайт (10%)
Выравнивание : Соединение по промежуткам
Продолжительность промежутка : 24 мс. (0,60 видеокадр)
Библиотека кодирования : LAMEªªª"TB! .Ï$
-Скриншоты:


Смотреть онлайн


[trackeroc.org].29714.torrent 
Torrent: Registered   [ 2019-12-31 05:31 ]

Скачать торрент

18 KB

Status: checked
Completed: 3 times
Size: 887 MB
 

Admin (31-дек-19)
Similar torrent
Forum Topic Author Size
Strategy, Стратегии Crossroads Inn [ENG / ENG] (2019) (2.0.2) Admin 7.22 GB
Arcade Blasphemous (1.0.13) [RUS + ENG] (2019) [GOG] Admin 824 MB
Strategy, Стратегии Foundation v1.5.9 [Early Access] (2019) (RUS/ENG) Repack DD Admin 1.39 GB
Песочницы, Sandbox Forager [v4.0.5] (2019) (ENG+RUS) Repack DD Admin 161 MB
Strategy Transport Fever 2 v27767 (2019) (RUS/ENG) GOG Admin 14.23 GB

_________________
[Profile] [PM]
Display posts from previous:    
Reply to topic

The time now is: Today 00:07

All times are GMT + 4 Hours



You cannot post new topics in this forum
You cannot reply to topics in this forum
You cannot edit your posts in this forum
You cannot delete your posts in this forum
You cannot vote in polls in this forum
You cannot attach files in this forum
You can download files in this forum