16 навсегда / Forever 16 (2013) TVRip [EN]

Ответить на тему

Статистика раздачи [Обновить пиров]
Размер:  698 MB   |    Зарегистрирован:  1 год 7 месяцев   |    Скачан:  2 раза

Полного источника не было: 17 дней

 
 
 
 
Автор Сообщение

BiOS ®

Стаж: 2 года 10 месяцев

Сообщений: 1866

Откуда: Raccoon City


Пост 19-Июл-2015 16:52

[Цитировать]

16 навсегда / Forever 16 - Производство: Канада, Odyssey Media
Жанр: Ужасы, Фэнтези
Режиссер: Джордж Менделюк
Актеры: Тиера Сковбай, Андреа Рот, Тайлер Джонстон, Джеффри Баллард, Шиван Уильямс, Ричард Хэрмон, Питер Брайант, Лана Лонерган, Аллан Хэрмон, Лиэнн Адачи
Описание:
Шестнадцатилетняя Рэйвен Хайгейт не простой подросток, она вампир, и ей приходится уже в сотый раз менять школу, чтобы никто не узнал её тайну. Но когда местный полицейский узнает секрет девушки, она предлагает Рэйвен помощь в общении со сверстниками в обмен на помощь в поимке серийного убийцы, гуляющего по школе. Девушке не остаётся ничего, кроме как согласиться… Но какой ценой?
Продолжительность: 01:25:17
Качество видео: TVRip
Перевод: Отсутствует
Язык озвучки: Английский
Видео: Xvid, 624x352, ~1003 kbps
Аудио: MP3, 2 ch, 128 kbps, CBR

Mediainfo

Код:
General
Complete name                    : H:\Downloads\Forever 16 (2013).avi
Format                           : AVI
Format/Info                      : Audio Video Interleave
File size                        : 698 MiB
Duration                         : 1h 25mn
Overall bit rate                 : 1 145 Kbps
Video
ID                               : 0
Format                           : MPEG-4 Visual
Format profile                   : Advanced Simple@L5
Format settings, BVOP            : Yes
Format settings, QPel            : No
Format settings, GMC             : No warppoints
Format settings, Matrix          : Default (H.263)
Codec ID                         : XVID
Codec ID/Hint                    : XviD
Duration                         : 1h 25mn
Bit rate                         : 1 003 Kbps
Width                            : 624 pixels
Height                           : 352 pixels
Display aspect ratio             : 16:9
Frame rate                       : 29.970 fps
Color space                      : YUV
Chroma subsampling               : 4:2:0
Bit depth                        : 8 bits
Scan type                        : Progressive
Bits/(Pixel*Frame)               : 0.152
Stream size                      : 612 MiB (88%)
Writing library                  : XviD 1.2.1 (UTC 2008-12-04)
Audio
ID                               : 1
Format                           : MPEG Audio
Format version                   : Version 1
Format profile                   : Layer 3
Codec ID                         : 55
Codec ID/Hint                    : MP3
Duration                         : 1h 25mn
Bit rate mode                    : Constant
Bit rate                         : 128 Kbps
Channel(s)                       : 2 channels
Sampling rate                    : 48.0 KHz
Stream size                      : 78.1 MiB (11%)
Alignment                        : Split accross interleaves
Interleave, duration             : 24 ms (0.72 video frame)
Скриншоты:


Смотреть онлайн


[trackeroc.ru].7101.torrent 
Торрент: Зарегистрирован   [ 2015-07-19 16:52 ]

Скачать торрент

14 KB

Статус: проверено
Скачан: 17 раз
Размер: 698 MB
 

Admin (19-июл-15)

_________________
[Профиль] [ЛС]
Показать сообщения:    
Ответить на тему

Текущее время: Сегодня 10:46

Часовой пояс: GMT + 4



Вы не можете начинать темы
Вы не можете отвечать на сообщения
Вы не можете редактировать свои сообщения
Вы не можете удалять свои сообщения
Вы не можете голосовать в опросах
Вы не можете прикреплять файлы к сообщениям
Вы можете скачивать файлы