Адреналин / Adrenaline [2015, Драма, WEBRip]

Ответить на тему

Статистика раздачи [Обновить пиров]
Размер:  1.37 GB   |    Зарегистрирован:  1 год 1 месяц   |    Скачан:  0 раз

Полного источника не было: Никогда

 
 
 
 
Автор Сообщение

Матвей ®

Стаж: 1 год 2 месяца

Сообщений: 236

Откуда: Челябинск


Пост 19-Окт-2015 11:50

[Цитировать]

Адреналин / Adrenaline --- Производство: США, Living Water Films
Жанр: Драма
Режиссер: Джозеф Куинн Симпкинс
Продюсер: Камерон Арнетт, Дель Барон
Актеры: Шарлин Амойя, Камерон Арнетт, Дина Бисли, Шэйн Каллахан, Люрей Купер, Гиги Эрнета, Тамара Фария, Р. Кит Харрис, Майк Холмс
Описание:
Жизнь уличного гонщика перевернулась, после автокатастрофы, которая оставила его наполовину парализованным. Но несмотря на это, он нашел в себе силы бороться, и вновь вернуться к гонкам.

http://www.kinopoisk.ru/film/713374/
http://www.imdb.com/title/tt2458952/
Дата мировой премьеры: 8 сентября 2015
Продолжительность: 01:33:34
Качество видео: WEBRip
Перевод: Двуголосый закадровый, любительский
Озвучка / Автор перевода: Raim & NastR
Вид субтитров: Отсутствуют
Видео: Xvid, 720x352, ~1890 Кбит/сек
Аудио: AC3, 2 ch, 192 kbps, CBR
Семпл: Скачать

Mediainfo:

Код:
Общее
Полное имя                               : Adrenaline.2015.L2.WEBRip.avi
Формат                                   : AVI
Формат/Информация                        : Audio Video Interleave
Размер файла                             : 1,37 Гбайт
Продолжительность                        : 1 ч. 33 м.
Общий поток                              : 2092 Кбит/сек
Программа кодирования                    : VirtualDubMod 1.5.10.3 | (build 2550/release)
Библиотека кодирования                   : VirtualDubMod build 2550/release
Видео
Идентификатор                            : 0
Формат                                   : MPEG-4 Visual
Профиль формата                          : Advanced Simple@L5
Параметр BVOP формата                    : 2
Параметр QPel формата                    : Нет
Параметр GMC формата                     : Без точки перехода
Параметр матрицы формата                 : Default (MPEG)
Идентификатор кодека                     : XVID
Идентификатор кодека/Подсказка           : XviD
Продолжительность                        : 1 ч. 33 м.
Битрейт                                  : 1890 Кбит/сек
Ширина                                   : 720 пикселей
Высота                                   : 352 пикселя
Соотношение сторон                       : 2,045
Частота кадров                           : 25,000 кадров/сек
Цветовое пространство                    : YUV
Субдискретизация насыщенности            : 4:2:0
Битовая глубина                          : 8 бит
Тип развёртки                            : Прогрессивная
Метод сжатия                             : С потерями
Бит/(Пиксели*Кадры)                      : 0.298
Размер потока                            : 1,24 Гбайт (90%)
Библиотека кодирования                   : XviD 1.2.1 (UTC 2008-12-04)
Аудио
Идентификатор                            : 1
Формат                                   : AC-3
Формат/Информация                        : Audio Coding 3
Расширение режима                        : CM (complete main)
Параметр Endianness формата              : Big
Идентификатор кодека                     : 2000
Продолжительность                        : 1 ч. 33 м.
Вид битрейта                             : Постоянный
Битрейт                                  : 192 Кбит/сек
Каналы                                   : 2 канала
Расположение каналов                     : Front: L R
Частота                                  : 48,0 КГц
Метод сжатия                             : С потерями
Размер потока                            : 129 Мбайт (9%)
Выравнивание                             : Разделение по промежуткам
Продолжительность промежутка             : 40  мс. (1,00 видеокадр)
Время предзагрузки промежутка            : 500  мс.
Скриншоты:


Смотреть онлайн

[trackeroc.ru].8968.torrent 
Торрент: Зарегистрирован   [ 2015-10-19 11:50 ]

Скачать торрент

15 KB

Статус: проверено
Скачан: 16 раз
Размер: 1.37 GB
 

Admin (19-окт-15)
Похожие торренты
Форум Тема Автор Размер
Xbox 360 | Kinect Motionsports Adrenaline [Region Free / ENG / DVD9 / LT+3.0] (Kinect) [XBOX360] BiOS 7.3 GB

_________________

[Профиль] [ЛС]
Показать сообщения:    
Ответить на тему

Текущее время: Сегодня 06:18

Часовой пояс: GMT + 4



Вы не можете начинать темы
Вы не можете отвечать на сообщения
Вы не можете редактировать свои сообщения
Вы не можете удалять свои сообщения
Вы не можете голосовать в опросах
Вы не можете прикреплять файлы к сообщениям
Вы можете скачивать файлы