Американская история преступлений / American Crime Story / Сезон: 2 / Серии: 1-9 из 9 скачать торрент

Ответить на тему

Статистика раздачи [Обновить пиров]
Размер:  6.04 GB   |    Зарегистрирован:  2 месяца 1 день   |    Скачан:  0 раз

Полного источника не было: Никогда

 
 
 
 
 
Автор Сообщение

Admin ®

Стаж: 4 года 1 месяц

Сообщений: 6710

Откуда: Скачать торрент


Пост 05-Фев-2016 19:27

[Цитировать]

Американская история преступлений / The Assassination of Gianni Versace: American Crime Story- • Год выпуска: 2018
• Страна: США
• Жанр: драма, криминал, биография
• Продолжительность: ~ 00:53:00-• Перевод: Профессиональный (многоголосый закадровый) | LostFilm-• Режиссёр: Райан Мёрфи, Энтони Хемингуэй, Джон Синглтон-• В ролях: Аннали Эшфорд, Даррен Крисс, Пенелопа Крус, Нико Эверс-Свинделл, Макс Гринфилд, Рики Мартин, Эдгар Рамирес, Финн Уиттрок-• Описание: Вторая глава криминальной антологии поведает свою версию дерзкого убийства легенды мировой моды, владельца многомиллионной империи – талантливого и эксцентричного Джанни Версаче. Яркие наряды, роскошные интерьеры, гениальная высокая мода на грани безвкусицы – жизнь итальянского модельера оборвалась 15 июля 1997 года, буквально в зените славы. И хотя всему миру известно имя психопата-убийцы – Эндрю Кьюненен – в этой истории по-прежнему много странных и противоречивых моментов. Роль фэшн-иконы досталась удивительно похожему на Версаче венесуэльскому актеру Эдгару Рамиресу, известному по роли в байопике «Карлос». Сестру Донателлу, нынешнего вице-президента и главного дизайнера модного дома Versace, играет Пенелопа Крус, музу и возлюбленного Антонио д’Амико – Рики Мартин, а убийцу – Даррен Крисс.-- -• Качество: WEB-DLRip
• Формат: AVI
• Видео: XviD, 720x400, 23.976 fps, ~1468 Kbps
• Аудио Rus: MP3, 48,0 kHz, 2 ch, 128 kbps | LostFilm
• Аудио Eng: MP3, 48,0 kHz, 2 ch, 128 kbps
• Субтитры: Отсутствуют
• Реклама: Отсутствует-

✘ Релиз ✘

Рип: DriverV
-

MediaInfo

Общее
Полное имя : E:\Американская история преступлений (сезон 2) American Crime Story (2018) WEB-DLRip - LostFilm\American.Crime.Story.S02E01.WEB-DLRip.Rus.Eng.DV.LostFilm.avi
Формат : AVI
Формат/Информация : Audio Video Interleave
Размер файла : 663 Мбайт
Продолжительность : 53 м. 21 с.
Общий поток : 1738 Кбит/сек
Название фильма : American.Crime.Story.S02E01.WEB-DLRip.Rus.Eng.DV.LostFilm / NNM-Club
Программа кодирования : VirtualDubModRus 1.5.10.2 (build 2542/release)
Библиотека кодирования : VirtualDubMod build 2542/release
Видео
Идентификатор : 0
Формат : MPEG-4 Visual
Профиль формата : Advanced Simple@L5
Настройки формата : BVOP2
Параметр BVOP формата : 2
Параметр QPel формата : Нет
Параметр GMC формата : Без точки перехода
Параметр матрицы формата : Default (H.263)
Идентификатор кодека : XVID
Идентификатор кодека/Подсказка : XviD
Продолжительность : 53 м. 21 с.
Битрейт : 1468 Кбит/сек
Ширина : 720 пикселей
Высота : 400 пикселей
Соотношение сторон : 16:9
Частота кадров : 23,976 (24000/1001) кадра/сек
Цветовое пространство : YUV
Субдискретизация насыщенности : 4:2:0
Битовая глубина : 8 бит
Тип развёртки : Прогрессивная
Метод сжатия : С потерями
Бит/(Пиксели*Кадры) : 0.213
Размер потока : 560 Мбайт (84%)
Заголовок : Rip by DriverV / NNM-Club
Библиотека кодирования : XviD 67
Аудио #1
Идентификатор : 1
Формат : MPEG Audio
Версия формата : Version 1
Профиль формата : Layer 3
Настройки формата : Joint stereo / MS Stereo
Идентификатор кодека : 55
Идентификатор кодека/Подсказка : MP3
Продолжительность : 53 м. 21 с.
Вид битрейта : Постоянный
Битрейт : 128 Кбит/сек
Каналы : 2 канала
Частота : 48,0 КГц
Метод сжатия : С потерями
Размер потока : 48,8 Мбайт (7%)
Выравнивание : Соединение по промежуткам
Продолжительность промежутка : 42 мс. (1,00 видеокадр)
Время предзагрузки промежутка : 504 мс.
Аудио #2
Идентификатор : 2
Формат : MPEG Audio
Версия формата : Version 1
Профиль формата : Layer 3
Настройки формата : Joint stereo / MS Stereo
Идентификатор кодека : 55
Идентификатор кодека/Подсказка : MP3
Продолжительность : 53 м. 21 с.
Вид битрейта : Постоянный
Битрейт : 128 Кбит/сек
Каналы : 2 канала
Частота : 48,0 КГц
Метод сжатия : С потерями
Размер потока : 48,8 Мбайт (7%)
Выравнивание : Соединение по промежуткам
Продолжительность промежутка : 42 мс. (1,00 видеокадр)
Время предзагрузки промежутка : 504 мс.
-

Список серий

    01. The Man Who Would Be Vogue / Человек, который хотел быть модой
    02. Manhunt / Облава
    03. A Random Killing / Случайное убийство
    04. House by the Lake / Дом у озера
    05. Don't Ask, Don't Tell / Не спрашивай, не говори
    06. Descent / Падение
    07. Ascent / Восхождение
    08. Creator/Destroyer / Создатель/Разрушитель
-

Скриншоты

-

Внимание! Раздача ведётся путём добавления новых серий

Внимание! Раздача ведётся путём добавления новых серий; при каждом добавлении создаётся новый торрент. Чтобы начать докачку новой серии, пользователям необходимо сделать следующее:
(1) остановить скачивание,
(2) удалить старый торрент у себя из клиента (старые серии удалять не надо),
(3) скачать новый торрент и запустить его у себя в клиенте вместо старого, при этом указать клиенту путь в старую папку куда и должно происходить скачивание новых серий.
Ваш клиент при этом должен произвести хеширование (проверку) старой папки (если не производит сам - помогите ему сделать это), и будет докачивать только те серии которых у вас ещё нет. Старые серии при этом не удаляются, а продолжают раздаваться!
Eсли вы уже удалили старые серии, то предотвратить повторную закачку старых серий можно, отжав галочку в соответствующих местах при запуске нового торрента. По возможности, желательно не удалять старые серии как можно дольше чтобы релизёр не столько продолжал раздавать старые серии, а смог сконцентрироваться на новых.


Смотреть онлайн


[trackeroc.ru].11493.torrent 
Торрент: Зарегистрирован   [ 2018-03-25 14:30 ]

Скачать торрент

122 KB

Статус: проверено
Скачан: 9 раз
Размер: 6.04 GB
 


Похожие торренты
Форум Тема Автор Размер
Песочницы, Sandbox Castle Story / История замка v1.1.5 (2017) [RUS/ENG] Repack DD Admin 970 MB
Квесты, я ищу, Поиск предметов, Hidden Object Dark Romance 8: Winter Lily / Мрачная история 8: Зимняя лилия [RUS / ENG] (2018) Admin 1.68 GB
Зарубежные сериалы Американская история ужасов / American Horror Story [сезон 7 серии 1-11 из 11] (2017) WEBRip Admin 6.82 GB
Квесты, я ищу, Поиск предметов, Hidden Object Dark Romance 7: The Monster Within / Мрачная история 7: Настоящий монстр (2017) [Ru] (1.0) Admin 1.33 GB

_________________
[Профиль] [ЛС]
Показать сообщения:    
Ответить на тему

Текущее время: Сегодня 03:18

Часовой пояс: GMT + 4



Вы не можете начинать темы
Вы не можете отвечать на сообщения
Вы не можете редактировать свои сообщения
Вы не можете удалять свои сообщения
Вы не можете голосовать в опросах
Вы не можете прикреплять файлы к сообщениям
Вы можете скачивать файлы