Американская история ужасов. Отель / American Horror Story. Hotel / Сезон: 5 / Серии: 1-12 [2015]

Ответить на тему

Статистика раздачи [Обновить пиров]
Размер:  7.91 GB   |    Зарегистрирован:  10 месяцев 21 день   |    Скачан:  0 раз

Полного источника не было: Никогда

 
 
 
 
Автор Сообщение

Admin ®

Стаж: 7 месяцев 13 дней

Сообщений: 4454

Откуда: trackeroc.ru


Пост 08-Окт-2015 13:46

[Цитировать]

-Американская история ужасов. Отель | American Horror Story. Hotel-- • Год выпуска: 2015
• Страна: США
• Жанр: Ужасы, фэнтези, триллер, драма
• Продолжительность: ~ 00:55:00-• Перевод: Профессиональный (многоголосый закадровый) | Amedia-• Режиссёр: Брэдли Букер, Майкл Аппендаль, Альфонсо Гомез-Рейон, Майкл Леманн-• В ролях: Леди Гага, Эван Питерс, Джессика Лэнг, Лили Рэйб, Фрэнсис Конрой, Сара Полсон, Таисса Фармига, Дэнис О`Харе, Закари Куинто, Дилан МакДермотт, Джэми Брюэр, Кэти Бэйтс, Джозеф Файнс, Лиззи Брошере, Эмма Робертс, Джеймс Кромуэлл, Конни Бриттон, Анджела Бассетт, Габури Сидибе, Кейт Мара-• Описание: Пятая часть антологии кошмаров и городских легенд, полная отсылок к лучшим традициям хоррор фильмов. В этот раз действие разворачивается в старом отеле в центре Лос-Анджелеса, который таит в себе много необъяснимых загадок. Звездой сезона стала Леди Гага в роли богатой графини и владелицы отеля «Кортес». В новом сезоне сразу два главных злодея, настоящий любовный треугольник, больше внимания к мужским ролям, отсылки к первому сезону и много-много крови. В «Отель» помимо постоянного актерского состава заселились Мэтт Бомер, Шайен Джексон, Макс Гринфилд и модель Наоми Кэмпбелл, уже успевшая блеснуть в «Империи». Кроме того с эпизодической ролью все-таки возвращается Джессика Лэнг.- -Ссылка на предыдущие и альтернативные раздачи-• Качество: HDTVRip
• Формат: AVI
• Видео: XviD, 720x400 (16:9), 23,976 fps, ~1500 kbps
• Аудио #1: MP3, 48 kHz, 2 ch, 128 kbps, CBR - Rus
• Аудио #2: MP3, 48 kHz, 2 ch, 128 kbps, CBR - Eng
• Субтитры: отсутствуют-

✘ Релиз ✘

✘ MediaInfo ✘

Код:
Общее
Полное имя                               : X:\ATorrent\AHS (Season 05) Amedia\AHS.Hotel.S05E01.XviD.Amedia.[qqss44].avi
Формат                                   : AVI
Формат/Информация                        : Audio Video Interleave
Размер файла                             : 799 Мбайт
Продолжительность                        : 1 ч. 1 м.
Общий поток                              : 1819 Кбит/сек
Программа кодирования                    : VirtualDubMod 1.5.10.3 | www.virtualdub-fr.org || (build 2550/release)
Библиотека кодирования                   : VirtualDubMod build 2550/release
Видео
Идентификатор                            : 0
Формат                                   : MPEG-4 Visual
Профиль формата                          : Advanced Simple@L5
Параметр BVOP формата                    : 2
Параметр QPel формата                    : Нет
Параметр GMC формата                     : Без точки перехода
Параметр матрицы формата                 : Default (MPEG)
Идентификатор кодека                     : XVID
Идентификатор кодека/Подсказка           : XviD
Продолжительность                        : 1 ч. 1 м.
Битрейт                                  : 1549 Кбит/сек
Ширина                                   : 720 пикселей
Высота                                   : 400 пикселей
Соотношение сторон                       : 16:9
Частота кадров                           : 23,976 кадра/сек
Цветовое пространство                    : YUV
Субдискретизация насыщенности            : 4:2:0
Битовая глубина                          : 8 бит
Тип развёртки                            : Прогрессивная
Метод сжатия                             : С потерями
Бит/(Пиксели*Кадры)                      : 0.224
Размер потока                            : 681 Мбайт (85%)
Библиотека кодирования                   : XviD 73
Аудио #1
Идентификатор                            : 1
Формат                                   : MPEG Audio
Версия формата                           : Version 1
Профиль формата                          : Layer 3
Режим                                    : Joint stereo
Расширение режима                        : MS Stereo
Идентификатор кодека                     : 55
Идентификатор кодека/Подсказка           : MP3
Продолжительность                        : 1 ч. 1 м.
Вид битрейта                             : Постоянный
Битрейт                                  : 128 Кбит/сек
Каналы                                   : 2 канала
Частота                                  : 48,0 КГц
Метод сжатия                             : С потерями
Размер потока                            : 56,3 Мбайт (7%)
Выравнивание                             : Соединение по промежуткам
Продолжительность промежутка             : 42  мс. (1,00 видеокадр)
Время предзагрузки промежутка            : 504  мс.
Аудио #2
Идентификатор                            : 2
Формат                                   : MPEG Audio
Версия формата                           : Version 1
Профиль формата                          : Layer 3
Режим                                    : Joint stereo
Расширение режима                        : MS Stereo
Идентификатор кодека                     : 55
Идентификатор кодека/Подсказка           : MP3
Продолжительность                        : 1 ч. 1 м.
Вид битрейта                             : Постоянный
Битрейт                                  : 128 Кбит/сек
Каналы                                   : 2 канала
Частота                                  : 48,0 КГц
Метод сжатия                             : С потерями
Размер потока                            : 56,3 Мбайт (7%)
Выравнивание                             : Соединение по промежуткам
Продолжительность промежутка             : 42  мс. (1,00 видеокадр)
Время предзагрузки промежутка            : 504  мс.

✘ Скриншоты ✘

✘ Раздача ведется путем добавления новых серий ✘

Когда раздача ведётся путём добавления новых серий, при каждом добавлении создётся новый торрент. Чтобы начать докачку новой серии, пользователям необходимо сделать следующее:
(1) остановить скачивание,
(2) удалить старый торрент у себя из клиента (старые серии удалять не надо),
(3) скачать новый торрент и запустить его у себя в клиенте вместо старого, при этом указать клиенту путь в старую папку, куда и должно происходить скачивание новых серий.
Ваш клиент при этом должен произвести хеширование (проверку) старой папки (если не производит сам - помогите ему сделать это), и будет докачивать только те серии, которых у вас ещё нет. Старые серии при этом не удаляются, а продолжают раздаваться!
Eсли вы уже удалили старые серии, то предотвратить повторную закачку старых серий можно, отжав галочку в соответсвующих местах при запуске нового торрента. По возможности, желательно не удалять старые серии как можно дольше, чтобы релизёр не столько продолжал раздавать старые серии, а смог сконцентрироваться на новых.
-


Смотреть онлайн

[trackeroc.ru].8510.torrent 
Торрент: Зарегистрирован   [ 2016-01-17 15:35 ]

Скачать торрент

41 KB

Статус: проверено
Скачан: 5 раз
Размер: 7.91 GB
 

Похожие торренты
Форум Тема Автор Размер
Зарубежные сериалы Американская история ужасов / American Horror Story (2016) WEBRip (сезон 6, серии 1-9 из 10) Admin 3.65 GB
Зарубежные сериалы Американская готика / American Gothic (2016) HDTVRip (сезон 1, серии 1-11 из 13) Admin 5.71 GB
Документальные Трейлеры Воспоминания Хрустального озера: Полная история пятницы 13-го / Crystal Lake Memories: The Complete History of Friday the 13th (2013) HDRip [H.264/720p] BiOS 14.91 GB
Квесты , я ищу , Поиск предметов Hidden Object Love Chronicles 5 Beyond the Shadows Collector's Edition / История любви 5 По ту сторону теней [P] [RUS / ENG] HOPE 934 MB
Квесты , я ищу , Поиск предметов Hidden Object Мрачная история 4: Заговор богов/Dark Romance 4: Kingdom Of Death (2016) (RUS) Admin 2.34 GB

_________________
[Профиль] [ЛС]
Показать сообщения:    
Ответить на тему

Текущее время: Сегодня 06:02

Часовой пояс: GMT + 4



Вы не можете начинать темы
Вы не можете отвечать на сообщения
Вы не можете редактировать свои сообщения
Вы не можете удалять свои сообщения
Вы не можете голосовать в опросах
Вы не можете прикреплять файлы к сообщениям
Вы можете скачивать файлы