Американская милашка / American Honey (2016) HDRip скачать торрент

Reply to topic

DL-List and Torrent activity [Update пиров]
Size:  2.05 GB   |    Registered:  3 years   |    Completed:  5 times
Seeders:  2  [  0 KB/s  ]   Leechers:  1  [  0 KB/s  ]   Show peers in full details
 
 
 
 
Author Message

BiOS ®

Longevity: 5 years 9 months

Posts: 2406

Location: Earth


Post 11-Jan-2017 19:15

[Quote]

Американская милашка / American Honey - Производство: Великобритания, США, British Film Institute (BFI), Film4, Maven Pictures
Жанр: Драма
Режиссер: Андреа Арнольд
Актеры: Саша Лэйн, Шайа ЛаБаф, Райли Кио, МакКаул Ломбарди, Ариэль Холмс, Кристал Айс, Вероника Эзелл, Чад Кокс, Гарри Хауэлл, Кеннет Кори Такер
Описание:
18-летняя Стар никогда не покидала родного городка. Влюбившись с первого взгляда в парня из проезжавшего мимо микроавтобуса, она, не долго думая, отправляется колесить по Среднему Западу в компании таких же неприкаянных подростков, продающих подписку на журналы. Молодость и радость — новые места, первая любовь, первые заработанные деньги и первый настоящий жизненный опыт.
Рейтинг MPAA: R (лицам до 17 лет обязательно присутствие взрослого)
Дата мировой премьеры: 15 мая 2016
Продолжительность: 02:43:32
Качество видео: HDRip
Перевод: Многоголосый закадровый, любительский
Озвучка / Автор перевода: @MUZOBOZ@
Вид субтитров: Отсутствуют
Реклама: Присутствуют аудио и видео вставки рекламы
Видео: XviD, 720x544, 1 594 Кбит/с
Аудио: Русский AC3, 2 ch, 192 Кбит/с

Mediainfo:

Код:
General
Format                           : AVI
Format/Info                      : Audio Video Interleave
Format profile                   : OpenDML
File size                        : 2.05 GiB
Duration                         : 2h 43mn
Overall bit rate                 : 1 798 Kbps
Writing application              : VirtualDubMod 1.5.10.2 (build 2540/release)
Writing library                  : VirtualDubMod build 2540/release
Video
ID                               : 0
Format                           : MPEG-4 Visual
Format profile                   : Advanced Simple@L5
Format settings, BVOP            : Yes
Format settings, QPel            : No
Format settings, GMC             : No warppoints
Format settings, Matrix          : Default (MPEG)
Codec ID                         : XVID
Codec ID/Hint                    : XviD
Duration                         : 2h 43mn
Bit rate                         : 1 594 Kbps
Width                            : 720 pixels
Height                           : 544 pixels
Display aspect ratio             : 4:3
Frame rate                       : 23.976 fps
Resolution                       : 8 bits
Colorimetry                      : 4:2:0
Scan type                        : Progressive
Bits/(Pixel*Frame)               : 0.170
Stream size                      : 1.82 GiB (89%)
Writing library                  : XviD 1.2.1 (UTC 2008-12-04)
Audio
ID                               : 1
Format                           : AC-3
Format/Info                      : Audio Coding 3
Codec ID                         : 2000
Duration                         : 2h 43mn
Bit rate mode                    : Constant
Bit rate                         : 192 Kbps
Channel(s)                       : 2 channels
Channel positions                : L R
Sampling rate                    : 48.0 KHz
Stream size                      : 225 MiB (11%)
Alignment                        : Split accross interleaves
Interleave, duration             : 42 ms (1.00 video frame)
Interleave, preload duration     : 500 ms
-Скриншоты:


Смотреть онлайн


[trackeroc.ru].17832.torrent 
Torrent: Registered   [ 2017-01-11 19:18 ]

Скачать торрент

11 KB

Status: checked
Completed: 120 times
Size: 2.05 GB
 

Admin (11-янв-17)
Similar torrent
Forum Topic Author Size
Зарубежные сериалы Американская история ужасов / American Horror Story [сезон 8 / Серии: 1 из 11 ] (2018) Admin 598 MB
Зарубежные сериалы Американская готика / American Gothic (2016) HDTVRip (сезон 1, серии 1-11 из 13) Admin 5.71 GB

_________________
[Profile] [PM]
Display posts from previous:    
Reply to topic

The time now is: Today 18:51

All times are GMT + 4 Hours



You cannot post new topics in this forum
You cannot reply to topics in this forum
You cannot edit your posts in this forum
You cannot delete your posts in this forum
You cannot vote in polls in this forum
You cannot attach files in this forum
You can download files in this forum