Ангелы Чарли / Charlie's Angels (2019) CAMRip [AD] скачать торрент

Reply to topic

DL-List and Torrent activity [Update пиров]
Size:  3.15 GB   |    Registered:  8 days   |    Completed:  0 times
Seeders:  2  [  144 KB/s  ]   Show peers in full details
 
 
 
 
Author Message

BiOS ®

Longevity: 5 years 7 months

Posts: 2374

Location: Earth


Post 29-Nov-2019 11:39

[Quote]

Ангелы Чарли / Charlie's Angels
«Миру нужны новые ангелы»
- Производство: США / Columbia Pictures, 2.0 Entertainment, Brownstone Productions
Жанр: Боевик, комедия, приключения
Режиссер: Элизабет Бэнкс
Актеры: Кристен Стюарт, Наоми Скотт, Элла Балинска, Сэм Клафлин, Ноа Сентинео, Элизабет Бэнкс, Джимон Хонсу, Патрик Стюарт, Луис Херардо Мендес, Джонатан Такер
Описание:
Частное детективное агентство Таунсенд, возглавляемое таинственным Чарли, открывает свои офисы по всему миру, и теперь в разных уголках земного шара команды суперпрофессиональных Ангелов под началом Босли обеспечивают покой и безопасность своим клиентам.

Возраст: 16+ (зрителям, достигшим 16 лет)
Рейтинг MPAA: PG-13 (детям до 13 лет просмотр нежелателен)
Дата мировой премьеры: 13 ноября 2019
Дата премьеры в России: 14 ноября 2019

Продолжительность: 01:50:50
Качество видео: CAMRip
Перевод: Дублированный
Субтитры: Отсутствуют
Реклама: Присутствует баннер.
Видео: AVC/H.264, 1280x600, ~3609 Kbps
Аудио: AC-3, 2 ch, 384 Kbps

MediaInfo:

Общее
Уникальный идентификатор : 219951557000818026900081827051732860623 (0xA5792105C458D690A0CF65C5E95DFECF)
Полное имя : Charlies Angels.2019.CAMRip.720p-LQ.mkv
Формат : Matroska
Версия формата : Version 4
Размер файла : 3,15 Гбайт
Продолжительность : 1 ч. 50 м.
Режим общего битрейта : Переменный
Общий поток : 4074 Кбит/сек
Дата кодирования : UTC 2019-11-29 00:15:51
Программа кодирования : mkvmerge v6.9.1 ('Blue Panther') 32bit built on Apr 18 2014 18:15:44
Библиотека кодирования : libebml v1.3.0 + libmatroska v1.4.1
Видео
Идентификатор : 1
Формат : AVC
Формат/Информация : Advanced Video Codec
Профиль формата : High@L4.1
Настройки формата : CABAC / 4 Ref Frames
Параметр CABAC формата : Да
Параметр RefFrames формата : 4 кадра
Идентификатор кодека : V_MPEG4/ISO/AVC
Продолжительность : 1 ч. 50 м.
Вид битрейта : Переменный
Битрейт : 3609 Кбит/сек
Максимальный битрейт : 4000 Кбит/сек
Ширина : 1280 пикселей
Высота : 600 пикселей
Соотношение сторон : 2,133
Режим частоты кадров : Постоянный
Частота кадров : 23,976 (24000/1001) кадра/сек
Стандарт вещания : Component
Цветовое пространство : YUV
Субдискретизация насыщенности : 4:2:0
Битовая глубина : 8 бит
Тип развёртки : Прогрессивная
Бит/(Пиксели*Кадры) : 0.196
Размер потока : 2,79 Гбайт (89%)
Default : Нет
Forced : Нет
Цветовой диапазон : Limited
Основные цвета : BT.709
Характеристики трансфера : BT.709
Коэффициенты матрицы : BT.709
Аудио
Идентификатор : 2
Формат : AC-3
Формат/Информация : Audio Coding 3
Коммерческое название : Dolby Digital
Идентификатор кодека : A_AC3
Продолжительность : 1 ч. 50 м.
Вид битрейта : Постоянный
Битрейт : 384 Кбит/сек
Каналы : 2 канала
ChannelLayout : L R
Частота : 48,0 КГц
Частота кадров : 31,250 кадров/сек (1536 SPF)
Битовая глубина : 16 бит
Метод сжатия : С потерями
Размер потока : 304 Мбайт (9%)
Язык : Russian
ServiceKind/String : Complete Main
Default : Да
Forced : Нет
-Скриншоты:


Смотреть онлайн


[trackeroc.org].29585.torrent 
Torrent: Registered   [ 2019-11-29 11:39 ]

Скачать торрент

17 KB

Status: T temporary
Completed: 4 times
Size: 3.15 GB
 

Admin (30-ноя-19)
Similar torrent
Forum Topic Author Size
Квесты, я ищу, Поиск предметов, Hidden Object Where Angels Cry 2: Tears of the Fallen Collector's Edition/ Там, где плачут ангелы 2: Слезы падшего (2015) (Big Fish Games) (RUS) [P] HOPE 1.16 GB
Российские сериалы Ангелы войны [серии 1-4 из 4] (Татьяна Ходаковская) [2012, военный, драма, WEB-DLRip, 720p-LQ] Матвей 2.82 GB

_________________
[Profile] [PM]
Display posts from previous:    
Reply to topic

The time now is: Today 20:30

All times are GMT + 4 Hours



You cannot post new topics in this forum
You cannot reply to topics in this forum
You cannot edit your posts in this forum
You cannot delete your posts in this forum
You cannot vote in polls in this forum
You cannot attach files in this forum
You can download files in this forum