Ангелы войны [серии 1-4 из 4] (Татьяна Ходаковская) [2012, военный, драма, WEB-DLRip, 720p-LQ]

Ответить на тему

Статистика раздачи [Обновить пиров]
Размер:  2.82 GB   |    Зарегистрирован:  1 год 1 месяц   |    Скачан:  4 раза

Полного источника не было: 1 день

 
 
 
 
Автор Сообщение

Матвей ®

Стаж: 1 год 2 месяца

Сообщений: 236

Откуда: Челябинск


Пост 10-Окт-2015 20:21

[Цитировать]

Ангелы войны (серии 1-4 из 4)--- Производство: Украина / "Промто Фильм"
Жанр: военный, драма
Режиссер: Татьяна Ходаковская
Актеры: Наталья Бузько, Богдан Бенюк, Матвей Зубалевич, Александра Тюфтей, Кирилл Полухин и др.
Описание:
Во время войны на оккупированной территории организован фильтрационный немецкий лагерь «Надежда», где проводят опыты над детьми. Особой ценностью считаются близнецы – самый ценный материал для опытов. И когда из лагеря удается бежать одному из близнецов, немцы поднимают тревогу, пытаясь отыскать сбежавшего мальчишку. Это усложняет жизнь и жителям ближайшего села, и партизанскому отряду, и даже местным полицаям. В центре развития событий жизнь маленького Пети и трогательная история любви молодой пары – полицая Андрея и дочки старосты Нины. Герои раз за разом сталкиваются со смертью близких, противостоянием, недоверием и обманом. Те, кто еще вчера были друзьями, становятся самыми опасными врагами, а те, кому вчера не подали бы руки, откроются с новой стороны.

КиноПоиск
Продолжительность: ~00:50:00 серия
Качество видео: WEB-DLRip
Видео: AVC/H.264, 1280х718 (16:9), ~1800 kbps
Аудио: AC3, 2 ch, 192 kbps, CBR

Mediainfo:

Код:
Общее
Уникальный идентификатор                 : 210323808620396164813241121549025075238 (0x9E3AE460ECD10FE8AD1905419868E026)
Полное имя                               : F:\DOWNLOADS\Ангелы войны (2012) WEB-DLRip 720\Ангелы войны - 01 серия.mkv
Формат                                   : Matroska
Версия формата                           : Version 2
Размер файла                             : 707 Мбайт
Продолжительность                        : 49 м.
Режим общего битрейта                    : Переменный
Общий поток                              : 2018 Кбит/сек
Дата кодирования                         : UTC 2015-10-10 13:36:25
Программа кодирования                    : mkvmerge v7.8.0 ('River Man') 32bit built on Apr  3 2015 12:11:22
Библиотека кодирования                   : libebml v1.3.1 + libmatroska v1.4.2
Видео
Идентификатор                            : 1
Формат                                   : AVC
Формат/Информация                        : Advanced Video Codec
Профиль формата                          : [url=mailto:High@L3.1]High@L3.1[/url]
Параметр CABAC формата                   : Да
Параметр ReFrames формата                : 3 кадра
Идентификатор кодека                     : V_MPEG4/ISO/AVC
Продолжительность                        : 49 м.
Вид битрейта                             : Переменный
Битрейт                                  : 1800 Кбит/сек
Максимальный битрейт                     : 40,0 Мбит/сек
Ширина                                   : 1280 пикселей
Высота                                   : 718 пикселей
Соотношение сторон                       : 16:9
Режим частоты кадров                     : Постоянный
Частота кадров                           : 25,000 кадров/сек
Цветовое пространство                    : YUV
Субдискретизация насыщенности            : 4:2:0
Битовая глубина                          : 8 бит
Тип развёртки                            : Прогрессивная
Бит/(Пиксели*Кадры)                      : 0.078
Размер потока                            : 626 Мбайт (88%)
Библиотека кодирования                   : x264 core 142 r2431 ac76440
Настройки программы                      : cabac=1 / ref=3 / deblock=1:0:0 / analyse=0x3:0x133 / me=umh / subme=7 / psy=1 / psy_rd=1.00:0.00 / mixed_ref=1 / me_range=32 / chroma_me=1 / trellis=2 / 8x8dct=1 / cqm=0 / deadzone=21,11 / fast_pskip=1 / chroma_qp_offset=-2 / threads=12 / lookahead_threads=2 / sliced_threads=0 / nr=0 / decimate=1 / interlaced=0 / bluray_compat=0 / constrained_intra=0 / bframes=0 / weightp=0 / keyint=75 / keyint_min=26 / scenecut=40 / intra_refresh=0 / rc_lookahead=50 / rc=2pass / mbtree=0 / bitrate=1800 / ratetol=1.0 / qcomp=0.20 / qpmin=10 / qpmax=51 / qpstep=4 / cplxblur=20.0 / qblur=0.5 / vbv_maxrate=2000 / vbv_bufsize=2000 / nal_hrd=none / filler=0 / ip_ratio=1.40 / aq=1:1.0
Default                                  : Да
Forced                                   : Нет
Цветовой диапазон                        : Limited
Основные цвета                           : BT.709
Характеристики трансфера                 : BT.709
Коэффициенты матрицы                     : BT.709
Аудио
Идентификатор                            : 2
Формат                                   : AC-3
Формат/Информация                        : Audio Coding 3
Расширение режима                        : CM (complete main)
Параметр Endianness формата              : Big
Идентификатор кодека                     : A_AC3
Продолжительность                        : 49 м.
Вид битрейта                             : Постоянный
Битрейт                                  : 192 Кбит/сек
Каналы                                   : 2 канала
Расположение каналов                     : Front: L R
Частота                                  : 44,1 КГц
Метод сжатия                             : С потерями
Размер потока                            : 67,3 Мбайт (10%)
Default                                  : Да
Forced                                   : Нет

Скриншоты:



Смотреть онлайн

[trackeroc.ru].8563.torrent 
Торрент: Зарегистрирован   [ 2015-10-10 20:21 ]

Скачать торрент

16 KB

Статус: проверено
Скачан: 15 раз
Размер: 2.82 GB
 

Admin (10-окт-15), BiOS (10-окт-15)
Похожие торренты
Форум Тема Автор Размер
Зарубежные сериалы Супердевушка / Supergirl (2016) (Сезон 2, серии 1-8 из 22) Admin 3.91 GB
Зарубежные сериалы Нация Z / Z Nation /Сезон: 3 / Серии: 1-13 из 14 Admin 6.35 GB
Зарубежные сериалы Легенды завтрашнего дня / DC's Legends of Tomorrow (2016) (сезон 2, серии 1-7 из 13) Admin 3.42 GB
Зарубежные сериалы Эш против Зловещих мертвецов / Ash vs Evil Dead (2016) WEBRip (сезон 2, серии 1-9 из 10) Пучков BiOS 2.8 GB
Зарубежные сериалы Ходячие мертвецы / The Walking Dead (2016) WEB-DLRip (сезон 7, серии 1-7 из 16) Admin 4.04 GB

_________________

[Профиль] [ЛС]
Показать сообщения:    
Ответить на тему

Текущее время: Сегодня 18:04

Часовой пояс: GMT + 4



Вы не можете начинать темы
Вы не можете отвечать на сообщения
Вы не можете редактировать свои сообщения
Вы не можете удалять свои сообщения
Вы не можете голосовать в опросах
Вы не можете прикреплять файлы к сообщениям
Вы можете скачивать файлы