Апокалипсис / Apocalypto (2006) BDRip [H.264]

Ответить на тему

Статистика раздачи [Обновить пиров]
Размер:  5.31 GB   |    Зарегистрирован:  1 год   |    Скачан:  3 раза

Полного источника не было: 4 месяца 13 дней

 
 
 
 
Автор Сообщение

BiOS ®

Стаж: 2 года 7 месяцев

Сообщений: 1732

Откуда: Raccoon City


Пост 13-Ноя-2015 02:01

[Цитировать]

Апокалипсис / Apocalypto
« Империя майя. Участь предрешена »
- Производство: США / Icon Entertainmnet International, Touchstone Pictures, Icon Productions
Жанр: Боевик, Триллер, Драма, Приключения
Режиссер: Мэл Гибсон
Актеры: Руди Янгблад, Далия Эрнандез, Джонатан Брюэр, Моррис Бердйеллоухэд, Карлос Эмилио Баэс, Рамирез Амилкар, Израэл Контрерас, Израэль Риос, Мария Исабель Диас, Эспиридион Акоста Каче, Майра Сербуло, Иазуа Лариос, Лорена Эрнандес, Итандехуи Гутьеррез, Саюри Гутьеррез, Хирам Сото, Хосе Суарез, Рауль Трухильо, Херардо Тарасена, Родольфо Паласиос, Ариэль Гальван, Бернардо Руис
Описание: В фильме показана жизнь цивилизации майя до прихода испанских конкистадоров: жестокие войны с соседними племенами, человеческие жертвоприношения, загадочные мистические ритуалы. В один день рушится мир индейца по имени Лапа Ягуара. Его деревню захватывает соседнее племя, уничтожая хижины, забирая местных жителей в плен. Его ведут в город, чтобы принести в жертву богам. Перед лицом неминуемой смерти Лапа Ягуара должен побороть свои самые сильные страхи и совершить отчаянный рывок, чтобы спасти то, что ему дорого…
Возраст: 16+ (зрителям, достигшим 16 лет)
Рейтинг MPAA: R (лицам до 17 лет обязательно присутствие взрослого)
Продолжительность: 02:18:21
Качество видео: BDRip
Перевод: Многоголосый закадровый, двуголосый закадровый, одноголосый закадровый
Язык субтитров: Русский, Английский
Видео: MPEG-4 AVC/H.264, 2800 Kbps, 1024x554
Аудио 1: Русский AC3 5.1, 448 Kbps, 48.0 KHz (Многоголосый закадровый) Киномания
Аудио 2: Русский AC3 5.1, 448 Kbps, 48.0 KHz (Двуголосый закадровый) П. Гланц и И. Королёва
Аудио 3: Русский AC3 5.1, 448 Kbps, 48.0 KHz (Одноголосый закадровый) Ю. Живов
Аудио 4: Русский AC3 5.1, 448 Kbps, 48.0 KHz (Одноголосый закадровый) Д. Строев
Аудио 5: Русский AC3 5.1, 448 Kbps, 48.0 KHz (Одноголосый закадровый) В. Королёв
Аудио 6: Майя AC3 5.1, 448 Kbps, 48.0 KHz (Оригинал)

MediaInfo

Код:
Общее
Полное имя                               : Апокалипсис.mkv
Формат                                   : Matroska
Версия формата                           : Version 1
Размер файла                             : 5,31 Гбайт
Продолжительность                        : 2 ч. 18 м.
Общий поток                              : 5491 Кбит/сек
Дата кодирования                         : UTC 2015-11-10 10:46:43
Программа кодирования                    : mkvmerge v2.4.1 ('Use Me') built on Dec  5 2008 18:30:05
Библиотека кодирования                   : libebml v0.7.7 + libmatroska v0.8.1
Видео
Идентификатор                            : 1
Формат                                   : AVC
Формат/Информация                        : Advanced Video Codec
Профиль формата                          : High@L4.1
Параметр CABAC формата                   : Да
Параметр ReFrames формата                : 9 кадров
Идентификатор кодека                     : V_MPEG4/ISO/AVC
Продолжительность                        : 2 ч. 18 м.
Битрейт                                  : 2800 Кбит/сек
Ширина                                   : 1024 пикселя
Высота                                   : 554 пикселя
Соотношение сторон                       : 1,85:1
Режим частоты кадров                     : Постоянный
Частота кадров                           : 23,976 кадра/сек
Цветовое пространство                    : YUV
Субдискретизация насыщенности            : 4:2:0
Битовая глубина                          : 8 бит
Тип развёртки                            : Прогрессивная
Бит/(Пиксели*Кадры)                      : 0.206
Размер потока                            : 2,60 Гбайт (49%)
Заголовок                                : Апокалипсис (2006)
Библиотека кодирования                   : x264 core 116 r2074 2641b9e
Настройки программы                      : cabac=1 / ref=9 / deblock=1:-3:-3 / analyse=0x3:0x113 / me=umh / subme=10 / psy=1 / psy_rd=0.90:0.05 / mixed_ref=1 / me_range=32 / chroma_me=1 / trellis=2 / 8x8dct=1 / cqm=0 / deadzone=21,11 / fast_pskip=1 / chroma_qp_offset=-3 / threads=3 / sliced_threads=0 / nr=0 / decimate=1 / interlaced=0 / bluray_compat=0 / constrained_intra=0 / bframes=9 / b_pyramid=2 / b_adapt=2 / b_bias=0 / direct=1 / weightb=1 / open_gop=0 / weightp=2 / keyint=250 / keyint_min=23 / scenecut=40 / intra_refresh=0 / rc=2pass / mbtree=0 / bitrate=2800 / ratetol=1.0 / qcomp=0.60 / qpmin=10 / qpmax=51 / qpstep=4 / cplxblur=20.0 / qblur=0.5 / ip_ratio=1.40 / pb_ratio=1.30 / aq=1:0.90
Язык                                     : English
Default                                  : Да
Forced                                   : Нет
Аудио #1
Идентификатор                            : 2
Формат                                   : AC-3
Формат/Информация                        : Audio Coding 3
Расширение режима                        : CM (complete main)
Параметр Endianness формата              : Big
Идентификатор кодека                     : A_AC3
Продолжительность                        : 2 ч. 18 м.
Вид битрейта                             : Постоянный
Битрейт                                  : 448 Кбит/сек
Каналы                                   : 6 каналов
Расположение каналов                     : Front: L C R, Side: L R, LFE
Частота                                  : 48,0 КГц
Метод сжатия                             : С потерями
Размер потока                            : 443 Мбайт (8%)
Заголовок                                : AC3 (Многоголосый) Киномания
Язык                                     : Russian
Default                                  : Да
Forced                                   : Нет
Аудио #2
Идентификатор                            : 3
Формат                                   : AC-3
Формат/Информация                        : Audio Coding 3
Расширение режима                        : CM (complete main)
Параметр Endianness формата              : Big
Идентификатор кодека                     : A_AC3
Продолжительность                        : 2 ч. 18 м.
Вид битрейта                             : Постоянный
Битрейт                                  : 448 Кбит/сек
Каналы                                   : 6 каналов
Расположение каналов                     : Front: L C R, Side: L R, LFE
Частота                                  : 48,0 КГц
Метод сжатия                             : С потерями
Размер потока                            : 443 Мбайт (8%)
Заголовок                                : AC3 (Двухголосый) П. Гланц и И. Королёва
Язык                                     : Russian
Default                                  : Нет
Forced                                   : Нет
Аудио #3
Идентификатор                            : 4
Формат                                   : AC-3
Формат/Информация                        : Audio Coding 3
Расширение режима                        : CM (complete main)
Параметр Endianness формата              : Big
Идентификатор кодека                     : A_AC3
Продолжительность                        : 2 ч. 18 м.
Вид битрейта                             : Постоянный
Битрейт                                  : 448 Кбит/сек
Каналы                                   : 6 каналов
Расположение каналов                     : Front: L C R, Side: L R, LFE
Частота                                  : 48,0 КГц
Метод сжатия                             : С потерями
Размер потока                            : 443 Мбайт (8%)
Заголовок                                : AC3 (Одноголосый) Ю. Живов
Язык                                     : Russian
Default                                  : Нет
Forced                                   : Нет
Аудио #4
Идентификатор                            : 5
Формат                                   : AC-3
Формат/Информация                        : Audio Coding 3
Расширение режима                        : CM (complete main)
Параметр Endianness формата              : Big
Идентификатор кодека                     : A_AC3
Продолжительность                        : 2 ч. 18 м.
Вид битрейта                             : Постоянный
Битрейт                                  : 448 Кбит/сек
Каналы                                   : 6 каналов
Расположение каналов                     : Front: L C R, Side: L R, LFE
Частота                                  : 48,0 КГц
Метод сжатия                             : С потерями
Размер потока                            : 443 Мбайт (8%)
Заголовок                                : AC3 (Одноголосый) Д. Строев
Язык                                     : Russian
Default                                  : Нет
Forced                                   : Нет
Аудио #5
Идентификатор                            : 6
Формат                                   : AC-3
Формат/Информация                        : Audio Coding 3
Расширение режима                        : CM (complete main)
Параметр Endianness формата              : Big
Идентификатор кодека                     : A_AC3
Продолжительность                        : 2 ч. 18 м.
Вид битрейта                             : Постоянный
Битрейт                                  : 448 Кбит/сек
Каналы                                   : 6 каналов
Расположение каналов                     : Front: L C R, Side: L R, LFE
Частота                                  : 48,0 КГц
Метод сжатия                             : С потерями
Размер потока                            : 443 Мбайт (8%)
Заголовок                                : AC3 (Одноголосый) В. Королёв
Язык                                     : Russian
Default                                  : Нет
Forced                                   : Нет
Аудио #6
Идентификатор                            : 7
Формат                                   : AC-3
Формат/Информация                        : Audio Coding 3
Расширение режима                        : CM (complete main)
Параметр Endianness формата              : Big
Идентификатор кодека                     : A_AC3
Продолжительность                        : 2 ч. 18 м.
Вид битрейта                             : Постоянный
Битрейт                                  : 448 Кбит/сек
Каналы                                   : 6 каналов
Расположение каналов                     : Front: L C R, Side: L R, LFE
Частота                                  : 48,0 КГц
Метод сжатия                             : С потерями
Размер потока                            : 443 Мбайт (8%)
Заголовок                                : AC3 (Оригинал)
Язык                                     : myn
Default                                  : Нет
Forced                                   : Нет
Текст #1
Идентификатор                            : 8
Формат                                   : UTF-8
Идентификатор кодека                     : S_TEXT/UTF8
Идентификатор кодека/Информация          : UTF-8 Plain Text
Заголовок                                : Русские
Язык                                     : Russian
Default                                  : Нет
Forced                                   : Нет
Текст #2
Идентификатор                            : 9
Формат                                   : UTF-8
Идентификатор кодека                     : S_TEXT/UTF8
Идентификатор кодека/Информация          : UTF-8 Plain Text
Заголовок                                : Английские
Язык                                     : English
Default                                  : Нет
Forced                                   : Нет

Дополнительная информация

» Непрекращающиеся дожди в Мексике стали причиной переноса релиза картины с 4 марта 2006 на 8 декабря 2006.
» Из-за непредсказуемого климата Мексиканских лесов, дополнительной заботой съемочной команды была охрана цифрового оборудования от внезапных дождей. В случае же сильной жары, оно оборачивалось в специальные одеяла, способные отражать высокую температуру. Приходилось даже прикреплять термометры ко всем камерам. А во время съемки сцены на водопаде, они были помещены в специальные водозащитные сумки, разработанные Питом Романо.
» Во время съемок на водопаде, когда Лапа Ягуара убегает от охотников и спрыгивает вниз, самая настоящая корова, направляющаяся вверх по течению, перебежала через водопад. Лишь после того, как местный житель подплыл к корове и успокоил ее, она вернулась на берег и продолжила щипать траву, как ни в чем не бывало.
» Большая часть заметных ролей была разыграна потомками индейцев Майа, которые никогда в жизни до этого не снимались. Например, роль маленькой заболевшей девочки, которая проклинает охотников, отдали 7-летней жительнице деревни, которая сильно напоминает место, где жило племя Лапы Ягуара.
» В трейлере «Апокалипсиса» можно заметить немало персонажей, которые так и не появились в самой картине.
» Для сцены прыжка с водопада Руди Янблад самостоятельно исполнил опасный трюк. При помощи ремня безопасности, он совершил прыжок с 15-этажного здания в Веракрусе. Позже этот прыжок был наложен при помощи компьютера на кадры с настоящим водопадом.
» Во время кастинга для Мэла Гибсона и Фарада Сафиниа было важно выбрать актеров, подходящих для созданных персонажей. Так, Руди Янблад привлек Гибсона своим соответствием мифическому образцу героя.
» Когда Мэл Гибсон был подростком, один старший парень назвал его «Почти», что очень сильно оскорбило честолюбивого Мэла. Этот же элемент уже режиссер Гибсон добавил в фильм: именно так называет героя Руди Янблада один из охотников.
» Герои говорят на юкатанском диалекте майя, фильм идет в кинотеатрах с субтитрами. Чтобы актеры могли освоить незнакомый язык, на котором им предстояло играть, в состав съемочной группы были включены специальные консультанты, проводившие уроки языка майя. Кроме того, каждый актер имел с собой плеер, чтобы постоянно прослушивать и заучивать свои реплики.
» Фильм снимался в Веракрусе и Катемако — одном из последних мест в Мексике, где еще сохранились участки тропического леса. В картине заняты исключительно представители коренного населения Америки, для большинства из которых это стало дебютом в кино. Чтобы подобрать актеров с соответствующей внешностью, кастинги проводились по всей Мексике, особенно на Юкатане, в Мехико и Оахаке. Часть будущих актеров нашли в других странах, в том числе США и Канаде. Далеко не все из них потомки майя, но все происходят из различных индейских племен, то есть являются коренными жителями континента.
» Прежде, чем приступить к съемкам, режиссер Мел Гибсон и сценарист Фарад Сафиния в течение нескольких месяцев изучали тексты майя, в том числе и самый известный из них «Пополь-Вух». Впоследствии Фарад Сафиния заметил: «Мы обнаружили, что проблемы, считавшиеся ключевыми для цивилизации майя, удивительным образом схожи с трудностями, которые встают сейчас перед нашей цивилизацией, особенно если речь заходит о повсеместном разрушении окружающей среды, чрезмерном потреблении и политической коррупции».
» Название фильма «Apocalypto» в русском прокате переведено некорректно. На самом деле это даже не английское слово, а греческий глагол, имеющий целый ряд значений: «показывать себя», «обнаруживать истину» и так далее.
-Скриншоты:


Смотреть онлайн

[trackeroc.ru].9705.torrent 
Торрент: Зарегистрирован   [ 2015-11-13 02:01 ]

Скачать торрент

14 KB

Статус: проверено
Скачан: 35 раз
Размер: 5.31 GB
 

Похожие торренты
Форум Тема Автор Размер
Фантастика Фэнтези Люди Икс: Апокалипсис / X-Men: Apocalypse (2016) TS | чистый звук Admin 1.37 GB
Зарубежные сериалы Ты, я и апокалипсис / You, Me and the Apocalypse / Сезон 1 / Серии 1-10) [2015] Admin 5.21 GB

_________________


Последний раз редактировалось: BiOS (2015-11-13 02:03), всего редактировалось 1 раз
[Профиль] [ЛС]

BiOS ®

Стаж: 2 года 7 месяцев

Сообщений: 1732

Откуда: Raccoon City


Пост 13-Ноя-2015 02:01 (спустя 13 секунд)

[Цитировать]

Обалденный, атмосферный фильм... 

_________________
[Профиль] [ЛС]
Показать сообщения:    
Ответить на тему

Текущее время: Сегодня 04:07

Часовой пояс: GMT + 4



Вы не можете начинать темы
Вы не можете отвечать на сообщения
Вы не можете редактировать свои сообщения
Вы не можете удалять свои сообщения
Вы не можете голосовать в опросах
Вы не можете прикреплять файлы к сообщениям
Вы можете скачивать файлы