Охота на работу / Get a Job [2016, США, Комедия, WEB-DLRip]

Ответить на тему

Статистика раздачи [Обновить пиров]
Размер:  1.45 GB   |    Зарегистрирован:  7 месяцев 22 дня   |    Скачан:  1 раз

Полного источника не было: 5 дней

 
 
 
 
Автор Сообщение

Admin ®

Стаж: 7 месяцев 7 дней

Сообщений: 4447

Откуда: trackeroc.ru


Пост 10-Апр-2016 18:42

[Цитировать]

Охота на работу / Get a Job
Страна: США
Жанр: Комедия
Год выпуска: 2016
Продолжительность: 01:22:45
Перевод: Любительский (многоголосый закадровый) RecentFilms
Cубтитры: нет
Режиссер: Дилан Кидд / Dylan Kidd
В ролях: Элисон Бри, Анна Кендрик, Брайан Крэнстон, Майлз Теллер, Николас Браун, Марша Гей Харден, Кристофер Минц-Плассе, Джон К. МакГинли, Хорхе Гарсиа, Рави Патель
Описание: Сюжет ленты строится вокруг выпускника колледжа и его друзей. Молодые специалисты стоят на распутье, чем заниматься, зачем и тому ли они учились. В стране Экономический кризис, а молодежь хочет отрываться.
Сэмпл: http://multi-up.com/1095901
Качество видео: WEB-DLRip
Формат видео: AVI
Видео: 720x400 (1.80:1), 23.976 fps, XviD build 73 ~2315 kbps avg, 0.34 bit/pixel
Аудио: 48 kHz, AC3 Dolby Digital, 2/0 (L,R) ch, ~192 kbps

MediaInfo

Формат : AVI
Формат/Информация : Audio Video Interleave
Размер файла : 1,45 Гбайт
Продолжительность : 1 ч. 22 м.
Общий поток : 2517 Кбит/сек
Программа кодирования : VirtualDubMod 1.5.10.3 | www.virtualdub-fr.org || (build 2550/release)
Библиотека кодирования : VirtualDubMod build 2550/release
Видео
Идентификатор : 0
Формат : MPEG-4 Visual
Профиль формата : Advanced Simple@L5
Параметр BVOP формата : 1
Параметр QPel формата : Нет
Параметр GMC формата : Без точки перехода
Параметр матрицы формата : Выборочная
Идентификатор кодека : XVID
Идентификатор кодека/Подсказка : XviD
Продолжительность : 1 ч. 22 м.
Битрейт : 2315 Кбит/сек
Ширина : 720 пикселей
Высота : 400 пикселей
Соотношение сторон : 16:9
Частота кадров : 23,976 (23976/1000) кадра/сек
Цветовое пространство : YUV
Субдискретизация насыщенности : 4:2:0
Битовая глубина : 8 бит
Тип развёртки : Прогрессивная
Метод сжатия : С потерями
Бит/(Пиксели*Кадры) : 0.335
Размер потока : 1,34 Гбайт (92%)
Библиотека кодирования : XviD 73
Аудио
Идентификатор : 1
Формат : AC-3
Формат/Информация : Audio Coding 3
Расширение режима : CM (complete main)
Параметр Endianness формата : Big
Идентификатор кодека : 2000
Продолжительность : 1 ч. 22 м.
Вид битрейта : Постоянный
Битрейт : 192 Кбит/сек
Каналы : 2 канала
Расположение каналов : Front: L R
Частота : 48,0 КГц
Частота кадров : 31,250 кадров/сек (1536 spf)
Метод сжатия : С потерями
Размер потока : 114 Мбайт (8%)
Выравнивание : Разделение по промежуткам
Продолжительность промежутка : 42 мс. (1,00 видеокадр)
Время предзагрузки промежутка : 500 мс.

Скриншоты



Смотреть онлайн

[trackerock.ru].12418.torrent 
Торрент: Зарегистрирован   [ 2016-04-10 18:42 ]

Скачать торрент

15 KB

Статус: проверено
Скачан: 18 раз
Размер: 1.45 GB
 

Похожие торренты
Форум Тема Автор Размер
Российские сериалы Тихая охота (2013) WEBRip (серии 1-30 из 30) BiOS 13.05 GB
RPG ролевые игры The Witcher 3: Wild Hunt / Ведьмак 3: Дикая Охота (2015) [Ru/Multi] (1.22 + DLC) GOG BiOS 57.38 GB
Фантастика Фэнтези Охота на монстра / Monster Hunt (2015) HDRip Admin 1.46 GB
Боевики Приговорённые 2: Охота в пустыне / The Condemned 2: Desert Prey (2015) WEB-DL Admin 2.89 GB

_________________
[Профиль] [ЛС]
Показать сообщения:    
Ответить на тему

Текущее время: Сегодня 02:10

Часовой пояс: GMT + 4



Вы не можете начинать темы
Вы не можете отвечать на сообщения
Вы не можете редактировать свои сообщения
Вы не можете удалять свои сообщения
Вы не можете голосовать в опросах
Вы не можете прикреплять файлы к сообщениям
Вы можете скачивать файлы