Беглец (2017) HDTVRip [H.264/1080p-LQ] (серии 1-20 из 20) скачать торрент

Ответить на тему

Статистика раздачи [Обновить пиров]
Размер:  14.98 GB   |    Зарегистрирован:  2 месяца 8 дней   |    Скачан:  1 раз

Полного источника не было: 1 день 6 часов

 
   
 
 
 
Автор Сообщение

BiOS ®

Стаж: 3 года 8 месяцев

Сообщений: 2024

Откуда: Raccoon City


Пост 10-Окт-2017 06:31

[Цитировать]

Беглец - Производство: Россия
Жанр: комедия, криминал
Режиссер: Михаил Жерневский
Актеры: Иван Охлобыстин, Семён Стругачев, Виктория Полторак, Григорий Сиятвинда, Анастасия Шунина-Махонина, Даниил Вахрушев, Александр Ильин и др.
Описание:
Миша — профессиональный аферист, который подставил своего босса и «кинул» его на большие деньги. Чтобы избежать смертельно опасных последствий, он сбегает в родной город. В первый же день Миша вступается за свою давнюю любовь Наташу, ссорится с главным криминальным авторитетом по кличке Дон и случайно устраивается на работу в полицию. Теперь он сам ловит преступников, попутно спасаясь от киллера и пытаясь наладить личную жизнь.
Возраст: 16+ (зрителям, достигшим 16 лет)
Дата российской премьеры: 8 октября 2017
Продолжительность: ~00:25:00 серия
Качество видео: HDTVRip
Видео: AVC/H.264, 1920x1080 (16:9), ~4075 Kbps
Аудио: AC3, 2 ch, 192 Kbps

Mediainfo:

Код:
Общее
Уникальный идентификатор                 : 254527928520572723278875693370752868967 (0xBF7C4BC18C5C969CEB4A4EAFA85BA267)
Формат                                   : Matroska
Версия формата                           : Version 4 / Version 2
Размер файла                             : 763 Мбайт
Продолжительность                        : 24 м. 30 с.
Режим общего битрейта                    : Переменный
Общий поток                              : 4351 Кбит/сек
Программа кодирования                    : Lavf57.71.100
Библиотека кодирования                   : Lavf57.71.100
ErrorDetectionType                       : Per level 1
Видео
Идентификатор                            : 1
Формат                                   : AVC
Формат/Информация                        : Advanced Video Codec
Профиль формата                          : High@L4
Настройки формата                        : CABAC / 4 Ref Frames
Параметр CABAC формата                   : Да
Параметр RefFrames формата               : 4 кадра
Идентификатор кодека                     : V_MPEG4/ISO/AVC
Продолжительность                        : 24 м. 30 с.
Вид битрейта                             : Переменный
Битрейт                                  : 4073 Кбит/сек
Максимальный битрейт                     : 4500 Кбит/сек
Ширина                                   : 1920 пикселей
Высота                                   : 1080 пикселей
Соотношение сторон                       : 16:9
Режим частоты кадров                     : Постоянный
Частота кадров                           : 25,000 кадров/сек
Цветовое пространство                    : YUV
Субдискретизация насыщенности            : 4:2:0
Битовая глубина                          : 8 бит
Тип развёртки                            : Прогрессивная
Бит/(Пиксели*Кадры)                      : 0.079
Размер потока                            : 714 Мбайт (94%)
Default                                  : Да
Forced                                   : Нет
Аудио
Идентификатор                            : 2
Формат                                   : AC-3
Формат/Информация                        : Audio Coding 3
Параметр Endianness формата              : Big
Идентификатор кодека                     : A_AC3
Продолжительность                        : 24 м. 30 с.
Вид битрейта                             : Постоянный
Битрейт                                  : 192 Кбит/сек
Каналы                                   : 2 канала
Расположение каналов                     : Front: L R
Частота                                  : 48,0 КГц
Частота кадров                           : 31,250 кадров/сек (1536 SPF)
Битовая глубина                          : 16 бит
Метод сжатия                             : С потерями
Задержка видео                           : -80 мс.
Размер потока                            : 33,7 Мбайт (4%)
Язык                                     : Russian
ServiceKind/String                       : Complete Main
Default                                  : Да
Forced                                   : Нет
-Скриншоты:


Смотреть онлайн

[trackeroc.ru].22539.torrent 
Торрент: Зарегистрирован   [ 2017-10-10 06:31 ]

Скачать торрент

77 KB

Статус: проверено
Скачан: 14 раз
Размер: 14.98 GB
 

Admin (10-окт-17)

Похожие торренты
Форум Тема Автор Размер
RPG, ролевые игры SpellForce 3 [1.15] (2017) (RUS/ENG) RePack от xatab Admin 8.02 GB
RPG, ролевые игры Seven: The Days Long Gone v1.0.5 (2017) [RUS] [ENG][MULTi9] [Repack] - by xatab max+100600 2.18 GB
RPG Seven: The Days Long Gone v1.0.6 (2017) [RUS/ENG] GOG Admin 4.5 GB
Strategy, Стратегии Epic Tavern v0.830 (2017) [ENG] Early Access Admin 767 MB
Песочницы, Sandbox Stationeers v0.1.1038.5247 (2017) (RUS/ENG) [Early Access] Admin 371 MB

_________________
[Профиль] [ЛС]
Показать сообщения:    
Ответить на тему

Текущее время: Сегодня 18:50

Часовой пояс: GMT + 4



Вы не можете начинать темы
Вы не можете отвечать на сообщения
Вы не можете редактировать свои сообщения
Вы не можете удалять свои сообщения
Вы не можете голосовать в опросах
Вы не можете прикреплять файлы к сообщениям
Вы можете скачивать файлы