Белая птица в метели / White Bird in a Blizzard (2014) WEB-DLRip [VO]

Ответить на тему

Статистика раздачи [Обновить пиров]
Размер:  1.36 GB   |    Зарегистрирован:  8 месяцев 23 дня   |    Скачан:  0 раз

Полного источника не было: Никогда

 
 
 
 
Автор Сообщение

BiOS ®

Стаж: 2 года 7 месяцев

Сообщений: 1730

Откуда: Raccoon City


Пост 10-Мар-2016 14:42

[Цитировать]

Белая птица в метели / White Bird in a Blizzard - Год выпуска: 2014
Производство: Франция, США, Desperate Pictures, Orange Studio, Why Not Productions, Wild Bunch
Жанр: Триллер, Драма
Режиссер: Грегг Араки
Актеры: Шейлин Вудли, Ева Грин, Кристофер Мелони, Шайло Фернандес, Габури Сидибе, Томас Джейн, Анджела Бассетт, Шерил Ли, Дейл Дикки, Марк Инделикато
Описание фильма:
Главной героине фильма Кэт Коннорс семнадцать лет, она живет в небольшом городке. Однажды ее мать бесследно исчезает, ее поиски оказываются безрезультатными, и девушка постепенно свыкается с мыслью, что мама ушла из ее жизни навсегда. Но спустя два года призраки прошлого вновь начинают терзать ее и возвращаются тревожные сны. Единственный способ поставить точку и жить дальше - узнать, что же на самом деле произошло.
Перевод: Одноголосый закадровый, любительский
Озвучка / Автор перевода: Алексей Матвеев
Дата мировой премьеры: 20 января 2014
Продолжительность: 01:31:17
Качество видео: WEB-DLRip
Видеокодек: Xvid
Битрейт видео: ~1744 kb/s
Размер кадра: 720x304
Аудиокодек: AC3 5.1
Битрейт аудио: 384 kb/s
Сэмпл: Скачать

MediaInfo:

Код:
Общее
Полное имя                               :Белая.птица.в.метели.2014.A.WEBDLRip.avi
Формат                                   : AVI
Формат/Информация                        : Audio Video Interleave
Размер файла                             : 1,36 Гбайт
Продолжительность                        : 1 ч. 31 м.
Общий поток                              : 2137 Кбит/сек
Программа кодирования                    : VirtualDubMod 1.5.10.3 | www.virtualdub-fr.org || (build 2550/release)
Библиотека кодирования                   : VirtualDubMod build 2550/release
Видео
Идентификатор                            : 0
Формат                                   : MPEG-4 Visual
Профиль формата                          : Advanced Simple@L5
Параметр BVOP формата                    : 2
Параметр QPel формата                    : Нет
Параметр GMC формата                     : Без точки перехода
Параметр матрицы формата                 : Default (H.263)
Идентификатор кодека                     : XVID
Идентификатор кодека/Подсказка           : XviD
Продолжительность                        : 1 ч. 31 м.
Битрейт                                  : 1744 Кбит/сек
Ширина                                   : 720 пикселей
Высота                                   : 304 пикселя
Соотношение сторон                       : 2,35:1
Частота кадров                           : 23,976 кадра/сек
Цветовое пространство                    : YUV
Субдискретизация насыщенности            : 4:2:0
Битовая глубина                          : 8 бит
Тип развёртки                            : Прогрессивная
Метод сжатия                             : С потерями
Бит/(Пиксели*Кадры)                      : 0.332
Размер потока                            : 1,11 Гбайт (82%)
Библиотека кодирования                   : XviD 64
Аудио
Идентификатор                            : 1
Формат                                   : AC-3
Формат/Информация                        : Audio Coding 3
Расширение режима                        : CM (complete main)
Параметр Endianness формата              : Big
Идентификатор кодека                     : 2000
Продолжительность                        : 1 ч. 31 м.
Вид битрейта                             : Постоянный
Битрейт                                  : 384 Кбит/сек
Каналы                                   : 6 каналов
Расположение каналов                     : Front: L C R, Side: L R, LFE
Частота                                  : 48,0 КГц
Битовая глубина                          : 16 бит
Метод сжатия                             : С потерями
Размер потока                            : 251 Мбайт (18%)
Выравнивание                             : Разделение по промежуткам
Продолжительность промежутка             : 42  мс. (1,00 видеокадр)
Время предзагрузки промежутка            : 500  мс.
-Скриншоты:


Смотреть онлайн

[trackerock.ru].12051.torrent 
Торрент: Зарегистрирован   [ 2016-03-10 14:42 ]

Скачать торрент

14 KB

Статус: проверено
Скачан: 14 раз
Размер: 1.36 GB
 

Admin (10-мар-16)

_________________
[Профиль] [ЛС]
Показать сообщения:    
Ответить на тему

Текущее время: Сегодня 02:11

Часовой пояс: GMT + 4



Вы не можете начинать темы
Вы не можете отвечать на сообщения
Вы не можете редактировать свои сообщения
Вы не можете удалять свои сообщения
Вы не можете голосовать в опросах
Вы не можете прикреплять файлы к сообщениям
Вы можете скачивать файлы