Бэтмен против Супермена: На заре справедливости / Batman v Superman: Dawn of Justice (2016) WEB-DLRip [Line]

Ответить на тему

Статистика раздачи [Обновить пиров]
Размер:  2.05 GB   |    Зарегистрирован:  5 месяцев 7 дней   |    Скачан:  4 раза

Полного источника не было: 22 часа

 
 
 
 
Автор Сообщение

Admin ®

Стаж: 7 месяцев 11 дней

Сообщений: 4447

Откуда: trackeroc.ru


Пост 28-Мар-2016 20:13

[Цитировать]

Бэтмен против Супермена: На заре справедливости
Batman v Superman: Dawn of Justice
- Год выпуска: 2016
Производство: США / DC Entertainment, Dune Entertainment, Syncopy
Жанр: фантастика, боевик
Режиссер: Зак Снайдер
Актеры: Генри Кавилл, Бен Аффлек, Галь Гадот, Джейсон Момоа, Эми Адамс, Джесси Айзенберг, Джена Мэлоун, Эзра Миллер, Дайан Лэйн, Джереми Айронс
Описание: Опасаясь, что действия богоподобного супергероя так и останутся бесконтрольными, грозный и могущественный страж Готэм Сити бросает вызов самому почитаемому в наши дни спасителю Метрополиса, в то время как весь остальной мир решает, какой герой ему по-настоящему нужен. И пока Бэтмен и Супермен пребывают в состоянии войны друг с другом, возникает новая угроза, которая ставит человечество под самую большую опасность, с которой оно когда-либо сталкивалось.
Возраст: 16+ (зрителям, достигшим 16 лет)
Рейтинг MPAA: PG-13 (детям до 13 лет просмотр нежелателен)
Дата мировой премьеры: 23 марта 2016
Дата российской премьеры: 25 марта 2016

Продолжительность: 02:31:37
Качество видео: WEB-DLRip
Перевод: Дублированный (Чистый звук)
Вид субтитров: Отсутствуют
Видео: Xvid, 720x304, ~1733 kbps
Аудио: AC3, 2 ch, 192 kbps, CBR

MediaInfo

Код:
Общее
Полное имя                               : C:\Бэтмен против Супермена.На заре справедливости.2016.D.WEB-DLRip.avi
Формат                                   : AVI
Формат/Информация                        : Audio Video Interleave
Профиль формата                          : OpenDML
Размер файла                             : 2,05 Гбайт
Продолжительность                        : 2 ч. 31 м.
Общий поток                              : 1937 Кбит/сек
Программа кодирования                    : VirtualDubMod 1.5.10.2 (build 2540/release)
Библиотека кодирования                   : VirtualDubMod build 2540/release
Видео
Идентификатор                            : 0
Формат                                   : MPEG-4 Visual
Профиль формата                          : Advanced Simple@L5
Параметр BVOP формата                    : 2
Параметр QPel формата                    : Нет
Параметр GMC формата                     : Без точки перехода
Параметр матрицы формата                 : Default (MPEG)
Идентификатор кодека                     : XVID
Идентификатор кодека/Подсказка           : XviD
Продолжительность                        : 2 ч. 31 м.
Битрейт                                  : 1733 Кбит/сек
Ширина                                   : 720 пикселей
Высота                                   : 304 пикселя
Соотношение сторон                       : 2,35:1
Частота кадров                           : 23,976 (24000/1001) кадра/сек
Цветовое пространство                    : YUV
Субдискретизация насыщенности            : 4:2:0
Битовая глубина                          : 8 бит
Тип развёртки                            : Прогрессивная
Метод сжатия                             : С потерями
Бит/(Пиксели*Кадры)                      : 0.330
Размер потока                            : 1,84 Гбайт (89%)
Библиотека кодирования                   : XviD 1.2.1 (UTC 2008-12-04)
Аудио
Идентификатор                            : 1
Формат                                   : AC-3
Формат/Информация                        : Audio Coding 3
Расширение режима                        : CM (complete main)
Параметр Endianness формата              : Big
Идентификатор кодека                     : 2000
Продолжительность                        : 2 ч. 31 м.
Вид битрейта                             : Постоянный
Битрейт                                  : 192 Кбит/сек
Каналы                                   : 2 канала
Расположение каналов                     : Front: L R
Частота                                  : 48,0 КГц
Частота кадров                           : 31,250 кадров/сек (1536 spf)
Метод сжатия                             : С потерями
Размер потока                            : 208 Мбайт (10%)
Выравнивание                             : Разделение по промежуткам
Продолжительность промежутка             : 42  мс. (1,00 видеокадр)
Время предзагрузки промежутка            : 500  мс.

Дополнительная информация

  • В основу фильма легли комиксы «Batman: The Dark Knight Returns» (Бэтмен: Возвращение Темного рыцаря), «Kingdom Come» (Второе пришествие) и «Batman: Noel» (Бэтмен: Рождество).
  • Рабочим названием фильма было «Сейдж и Майло» (Sage & Milo).
  • Название фильма является отсылкой к «Лиге справедливости».
  • Работу над фильмом начал Эндрю Кевин Уокер еще в августе 2001 года. Вольфганг Петерсен рассматривался на место режиссера, а Акива Голдсман — на место сценариста. По сценарию Голдсмана Джокер убивал невесту Брюса Уэйна, после чего Уэйн начинал буйствовать на почве мести, и в результате у них развивался конфликт с Суперменом, который пытался его остановить. Затем проект был заморожен, но в фильме «Я — легенда» (2007), сценаристом которого является Голдсман, в открывающей сцене, на стене одного из зданий зрители заметили плакат — знак Супермена на фоне знака Бэтмена.
  • Ранее Бен Аффлек и Дайан Лэйн вместе снимались в фильме «Смерть супермена» (2006), где Аффлек сыграл Джорджа Ривза, актера известного по роли Супермена на телевидении.
  • Джош Бролин, Райан Гослинг, Мэттью Гуд, Ричард Армитедж, Макс Мартини, Арми Хаммер, Дженсен Эклс и Джо Манганьелло рассматривались на роль Бэтмена, прежде чем ее получил Бен Аффлек.
  • Сразу после того как выяснилось, что роль Бэтмена досталась Бену Аффлеку, он стал ежедневно проводить по два часа в тренажерном зале, чтобы набрать необходимую физическую форму для своей роли.
  • Джейми Александер, Ольга Куриленко и Элоди Юнг прослушивались на роль Чудо Женщины прежде, чем она отошла Галь Гадот.
  • Марк Стронг, Дензел Вашингтон, Идрис Эльба, Адам Драйвер и Хоакин Феникс рассматривались на роль Лекса Лютора, прежде чем она досталась Джесси Айзенбергу.
  • Люси Гриффитс рассматривали на роль Чудо Женщины.
  • Тимоти Далтон рассматривался на роль Альфреда.
  • Галь Гадот – первая неамериканская актриса, исполнившая роль Чудо Женщины.
  • Джейсону Момоа предлагали роль Думсдэя.
  • Адам Драйвер, Пенн Бэджли и Эзра Миллер прослушивались на роль Найтвинга — союзника Бэтмена.
-Скриншоты:


Смотреть онлайн

[trackeroc.ru].12308.torrent 
Торрент: Зарегистрирован   [ 2016-06-28 23:04 ]

Скачать торрент

11 KB

Статус: проверено
Скачан: 27 раз
Размер: 2.05 GB
 

Megaro (28-май-16), BiOS (28-июн-16)
Похожие торренты
Форум Тема Автор Размер
Зарубежные сериалы Эш против Зловещих мертвецов / Ash vs Evil Dead (2016) WEBRip (сезон 2, серии 1-9 из 10) Пучков BiOS 2.8 GB
Зарубежные Мультсериалы Монстры против Пришельцев / Monsters vs. Aliens (2013) WEB-DL [H.264/720p] (Сезон 1 , серии 52 из 52) BiOS 19.07 GB
Зарубежные Мультсериалы Стар против сил зла / Star vs. The Forces of Evil (2015) WEB-DL (Сезон 2, серии 1-5 из 22) BiOS 4.26 GB
Зарубежные Бэтмен: Нападение на Аркхэм / Batman: Assault on Arkham (2014) WEB-DL [720p] BiOS 2.43 GB
Фантастика Фэнтези Бэтмен против Супермена: На заре справедливости (Расширенная версия) / Batman v Superman: Dawn of Justice (Extended Ultimate Edition) (2016) WEB-DL [H.264/1080p-LQ] [RU/EN Sub] BiOS 6.71 GB

_________________
[Профиль] [ЛС]

BiOS

Стаж: 2 года 7 месяцев

Сообщений: 1730

Откуда: Raccoon City


Пост 28-Июн-2016 22:57 (спустя 3 месяца)

[Цитировать]

Торрент-файл перезалит, просьба перекачать/перехешировать с уже скачанным заново !!! 

_________________
[Профиль] [ЛС]
Показать сообщения:    
Ответить на тему

Текущее время: Сегодня 09:34

Часовой пояс: GMT + 4



Вы не можете начинать темы
Вы не можете отвечать на сообщения
Вы не можете редактировать свои сообщения
Вы не можете удалять свои сообщения
Вы не можете голосовать в опросах
Вы не можете прикреплять файлы к сообщениям
Вы можете скачивать файлы