Bloodborne (2015) WEBRip [H.264/1080p-LQ] [Gameplay] скачать торрент

Ответить на тему

Статистика раздачи [Обновить пиров]
Размер:  2.8 GB   |    Зарегистрирован:  2 года   |    Скачан:  0 раз

Полного источника не было: 1 месяц 13 дней

 
   
 
 
 
Автор Сообщение

BiOS ®

Стаж: 3 года 7 месяцев

Сообщений: 2027

Откуда: Raccoon City


Пост 13-Ноя-2015 01:42

[Цитировать]

Bloodborne - Жанр: Приключения, Игровой фильм
Описание:
Компьютерная игра в жанре Action/RPG, разработанная совместно японскими компаниями From Software и SCE Japan Studio эксклюзивно для игровой приставки PlayStation 4 под руководством геймдизайнера Хидэтаки Миядзаки. Релиз игры состоялся 24 марта 2015 года.
Действие игры начинается в охваченном эпидемией чумы вымышленном городе Ярнам, созданном в викторианско-готическом стиле. Игрок принимает управление за паломника, который прибыл в город для излечения своей болезни, но стал охотником вследствие местного ритуала переливания крови. Сюжет игры, подобно предыдущим играм From Software, не объясняется напрямую, поэтому основной целью игрока остается исследование локаций и уничтожение «добычи» — боссов.
Продолжительность: 02:14:25
Качество видео: WEBRip
Видео: AVC/H.264, 1920x1080, ~2845 Кбит/сек
Аудио: AAC, 2 ch, 126 Кбит/сек, CBR

Mediainfo:

Код:
Общее
Полное имя                               : X:\Films\Bloodborne.mp4
Формат                                   : MPEG-4
Профиль формата                          : Base Media
Идентификатор кодека                     : isom
Размер файла                             : 2,80 Гбайт
Продолжительность                        : 2 ч. 14 м.
Общий поток                              : 2978 Кбит/сек
Программа кодирования                    : Lavf57.2.100
Видео
Идентификатор                            : 1
Формат                                   : AVC
Формат/Информация                        : Advanced Video Codec
Профиль формата                          : High@L4
Параметр CABAC формата                   : Да
Параметр ReFrames формата                : 3 кадра
Идентификатор кодека                     : avc1
Идентификатор кодека/Информация          : Advanced Video Coding
Продолжительность                        : 2 ч. 14 м.
Битрейт                                  : 2845 Кбит/сек
Ширина                                   : 1920 пикселей
Высота                                   : 1080 пикселей
Соотношение сторон                       : 16:9
Режим частоты кадров                     : Постоянный
Частота кадров                           : 30,000 кадров/сек
Цветовое пространство                    : YUV
Субдискретизация насыщенности            : 4:2:0
Битовая глубина                          : 8 бит
Тип развёртки                            : Прогрессивная
Бит/(Пиксели*Кадры)                      : 0.046
Размер потока                            : 2,67 Гбайт (96%)
Аудио
Идентификатор                            : 2
Формат                                   : AAC
Формат/Информация                        : Advanced Audio Codec
Профиль формата                          : LC
Идентификатор кодека                     : 40
Продолжительность                        : 2 ч. 14 м.
Вид битрейта                             : Постоянный
Битрейт                                  : 126 Кбит/сек
Каналы                                   : 2 канала
Расположение каналов                     : Front: L R
Частота                                  : 44,1 КГц
Метод сжатия                             : С потерями
Размер потока                            : 121 Мбайт (4%)
-Скриншоты:


[trackeroc.ru].9702.torrent 
 СЕРЕБРЯНАЯ РАЗДАЧА! СКАЧАННОЕ ЗАСЧИТЫВАЕТСЯ ТОЛЬКО НАПОЛОВИНУ! 
Торрент: Зарегистрирован   [ 2015-11-13 01:45 ]

Скачать торрент

15 KB

Статус: проверено
Скачан: 78 раз
Размер: 2.8 GB
 

Похожие торренты
Форум Тема Автор Размер
Strategy Galactic Civilizations 3/III (2015) [Ru/Multi] (2.61/dlc) GOG BiOS 15.06 GB
RPG Pillars Of Eternity (v3.7.0.1280/dlc) (2015) (ENG+RUS) GOG Admin 14.74 GB
Cимуляторы Euro Fishing: Urban Edition [21.11.2017] (2015) (RUS|ENG) RePack от xatab Admin 2.88 GB
Adventure HuniePop [1.2.0] [ENG / ENG] (2015) GOG Admin 1.09 GB
Arcade Apotheon (2015) [En] (1.26) License GOG BiOS 564 MB

_________________
[Профиль] [ЛС]
Показать сообщения:    
Ответить на тему

Текущее время: Сегодня 00:15

Часовой пояс: GMT + 4



Вы не можете начинать темы
Вы не можете отвечать на сообщения
Вы не можете редактировать свои сообщения
Вы не можете удалять свои сообщения
Вы не можете голосовать в опросах
Вы не можете прикреплять файлы к сообщениям
Вы можете скачивать файлы