Bloodborne (2015) WEBRip [H.264/1080p-LQ] [Gameplay]

Ответить на тему

Статистика раздачи [Обновить пиров]
Размер:  2.8 GB   |    Зарегистрирован:  1 год   |    Скачан:  0 раз

Полного источника не было: 1 год

 
 
 
 
Автор Сообщение

BiOS ®

Стаж: 2 года 7 месяцев

Сообщений: 1742

Откуда: Raccoon City


Пост 13-Ноя-2015 01:42

[Цитировать]

Bloodborne - Жанр: Приключения, Игровой фильм
Описание:
Компьютерная игра в жанре Action/RPG, разработанная совместно японскими компаниями From Software и SCE Japan Studio эксклюзивно для игровой приставки PlayStation 4 под руководством геймдизайнера Хидэтаки Миядзаки. Релиз игры состоялся 24 марта 2015 года.
Действие игры начинается в охваченном эпидемией чумы вымышленном городе Ярнам, созданном в викторианско-готическом стиле. Игрок принимает управление за паломника, который прибыл в город для излечения своей болезни, но стал охотником вследствие местного ритуала переливания крови. Сюжет игры, подобно предыдущим играм From Software, не объясняется напрямую, поэтому основной целью игрока остается исследование локаций и уничтожение «добычи» — боссов.
Продолжительность: 02:14:25
Качество видео: WEBRip
Видео: AVC/H.264, 1920x1080, ~2845 Кбит/сек
Аудио: AAC, 2 ch, 126 Кбит/сек, CBR

Mediainfo:

Код:
Общее
Полное имя                               : X:\Films\Bloodborne.mp4
Формат                                   : MPEG-4
Профиль формата                          : Base Media
Идентификатор кодека                     : isom
Размер файла                             : 2,80 Гбайт
Продолжительность                        : 2 ч. 14 м.
Общий поток                              : 2978 Кбит/сек
Программа кодирования                    : Lavf57.2.100
Видео
Идентификатор                            : 1
Формат                                   : AVC
Формат/Информация                        : Advanced Video Codec
Профиль формата                          : High@L4
Параметр CABAC формата                   : Да
Параметр ReFrames формата                : 3 кадра
Идентификатор кодека                     : avc1
Идентификатор кодека/Информация          : Advanced Video Coding
Продолжительность                        : 2 ч. 14 м.
Битрейт                                  : 2845 Кбит/сек
Ширина                                   : 1920 пикселей
Высота                                   : 1080 пикселей
Соотношение сторон                       : 16:9
Режим частоты кадров                     : Постоянный
Частота кадров                           : 30,000 кадров/сек
Цветовое пространство                    : YUV
Субдискретизация насыщенности            : 4:2:0
Битовая глубина                          : 8 бит
Тип развёртки                            : Прогрессивная
Бит/(Пиксели*Кадры)                      : 0.046
Размер потока                            : 2,67 Гбайт (96%)
Аудио
Идентификатор                            : 2
Формат                                   : AAC
Формат/Информация                        : Advanced Audio Codec
Профиль формата                          : LC
Идентификатор кодека                     : 40
Продолжительность                        : 2 ч. 14 м.
Вид битрейта                             : Постоянный
Битрейт                                  : 126 Кбит/сек
Каналы                                   : 2 канала
Расположение каналов                     : Front: L R
Частота                                  : 44,1 КГц
Метод сжатия                             : С потерями
Размер потока                            : 121 Мбайт (4%)
-Скриншоты:


[trackeroc.ru].9702.torrent 
 СЕРЕБРЯНАЯ РАЗДАЧА! СКАЧАННОЕ ЗАСЧИТЫВАЕТСЯ ТОЛЬКО НАПОЛОВИНУ! 
Торрент: Зарегистрирован   [ 2015-11-13 01:45 ]

Скачать торрент

15 KB

Статус: проверено
Скачан: 42 раз
Размер: 2.8 GB
 

Похожие торренты
Форум Тема Автор Размер
Инди игры The Escapists (1.37 + 5 DLC) (2015) (RUS|ENG) Admin 94 MB
Песочницы , Sandbox Train Valley v1.1.5.1 + 2DLC (2015) (ENG+RUS) Repack DD Admin 638 MB
Приключенческие игры Adventure Renowned Explorers: International Society (v1.0.407 + 1 DLC) (2015) (ENG) GOG Admin 873 MB
Strategy Стратегии Unending Galaxy. Deluxe Edition (v1.3.0.3) [ENG] (2015) Admin 203 MB
Arcade , Аркады , Платформеры Magicmaker 1.0.13 (2015) (ENG) GOG Admin 215 MB

_________________
[Профиль] [ЛС]
Показать сообщения:    
Ответить на тему

Текущее время: Сегодня 17:37

Часовой пояс: GMT + 4



Вы не можете начинать темы
Вы не можете отвечать на сообщения
Вы не можете редактировать свои сообщения
Вы не можете удалять свои сообщения
Вы не можете голосовать в опросах
Вы не можете прикреплять файлы к сообщениям
Вы можете скачивать файлы