Borderlands - Original Soundtrack (by Jesper Kyd, Raison Varner, Sascha Dikiciyan, Cris Velasco, Tim Larkin) - 2009, FLAC (tracks+.cue), lossless (Score)

Ответить на тему

Статистика раздачи [Обновить пиров]
Скачали
Размер:  369 MB   |    Зарегистрирован:  1 год 1 месяц   |    Скачан:  3 раза

Полного источника не было: 19 часов

 
 
 
 
Автор Сообщение

BiOS ®

Стаж: 2 года 7 месяцев

Сообщений: 1740

Откуда: Raccoon City


Пост 11-Окт-2015 19:22

[Цитировать]

-Borderlands - Original Soundtrack-- --.::: Жанр: Score ::: Композиторы: Jesper Kyd, Raison Varner, Sascha Dikiciyan, Cris Velasco, Tim Larkin ::: Год выпуска диска: 2009 ::: Производитель диска: US ::: Издатель: Sumthing Else Distribution ::: Номер по каталогу: SE-2072-2 ::: Аудио кодек: FLAC (*.flac) ::: Тип рипа: tracks+.cue ::: Битрейт аудио: lossless ::: Продолжительность: 01:03:05.45 :::.- --

Треклист

01. Jesper Kyd - Prelude [0:04:23.11]02. Jesper Kyd - Welcome To Fyrestone [0:04:33.72]03. Raison Varner - Enter Skag Gully [0:02:48.37]04. Raison Varner - Fighting Off The Skags [0:02:21.70]05. Sascha Dikiciyan & Cris Velasco - Removing The Bandit Threat [0:01:35.54]06. Raison Varner - Traversing The Deep [0:02:28.13]07. Sascha Dikiciyan & Cris Velasco - Fighting Sledge's Minions [0:03:14.55]08. Sascha Dikiciyan & Cris Velasco - Welcome to The Bunker [0:01:30.46]09. Sascha Dikiciyan & Cris Velasco - Smoking Out The Bunker [0:01:40.62]10. Sascha Dikiciyan & Cris Velasco - Burning Rubber and Shooting Bullets [0:01:53.60]11. Jesper Kyd - The Junkyard Vista [0:02:07.05]12. Raison Varner - Welcome to The Trash Coast [0:02:16.58]13. Raison Varner - The Rakkhive Emerges [0:02:21.54]14. Raison Varner - Assaulting Krom's Canyon [0:04:46.36]15. Raison Varner - Battling Krom's Minions [0:02:15.10]16. Sascha Dikiciyan & Cris Velasco - Fighting Krom and His Gun [0:02:58.53]17. Sascha Dikiciyan & Cris Velasco - Trash The Bandits [0:01:11.07]18. Sascha Dikiciyan & Cris Velasco - Trash The Bandits Some More [0:01:08.71]19. Jesper Kyd - Welcome To The Wastelands [0:01:36.59]20. Raison Varner - Traveling To The Vault [0:03:21.20]21. Raison Varner - Destroying the Destroyer [0:01:38.52]22. Jesper Kyd - Bonus - Bring Your Guns [0:02:45.09]23. Sascha Dikiciyan & Cris Velasco - Bonus - Borderlands [0:01:32.36]24. Tim Larkin - Bonus - The Old New Haven [0:01:41.50]25. Tim Larkin - Bonus - Exploring the Mine [0:02:14.04]26. Sascha Dikiciyan & Cris Velasco - Bonus - Exploring Overlook [0:01:36.30]27. Sascha Dikiciyan & Cris Velasco - Bonus - The Threat At Overlook [0:01:01.61]

Отчет EAC

Код:
Exact Audio Copy V0.99 prebeta 5 from 4. May 2009
EAC extraction logfile from 5. December 2010, 15:58
Various / Borderlands Original Soundtrack
Used drive  : PIONEER DVD-RW  DVR-216D   Adapter: 3  ID: 0
Read mode               : Secure
Utilize accurate stream : Yes
Defeat audio cache      : Yes
Make use of C2 pointers : No
Read offset correction                      : 96
Overread into Lead-In and Lead-Out          : No
Fill up missing offset samples with silence : Yes
Delete leading and trailing silent blocks   : No
Null samples used in CRC calculations       : Yes
Used interface                              : Native Win32 interface for Win NT & 2000
Gap handling                                : Appended to previous track
Used output format              : User Defined Encoder
Selected bitrate                : 1024 kBit/s
Quality                         : High
Add ID3 tag                     : No
Command line compressor         : C:\Program Files\Exact Audio Copy\Flac\flac.exe
Additional command line options : -8 -V -T "ARTIST=%a" -T "TITLE=%t" -T "ALBUM=%g" -T "DATE=%y" -T "TRACKNUMBER=%n" -T "GENRE=%m" -T "COMMENT=EAC FLAC -8" %s
TOC of the extracted CD
     Track |   Start  |  Length  | Start sector | End sector
    ---------------------------------------------------------
        1  |  0:00.00 |  4:23.11 |         0    |    19735
        2  |  4:23.11 |  4:33.72 |     19736    |    40282
        3  |  8:57.08 |  2:48.37 |     40283    |    52919
        4  | 11:45.45 |  2:21.70 |     52920    |    63564
        5  | 14:07.40 |  1:35.54 |     63565    |    70743
        6  | 15:43.19 |  2:28.13 |     70744    |    81856
        7  | 18:11.32 |  3:14.55 |     81857    |    96461
        8  | 21:26.12 |  1:30.46 |     96462    |   103257
        9  | 22:56.58 |  1:40.62 |    103258    |   110819
       10  | 24:37.45 |  1:53.60 |    110820    |   119354
       11  | 26:31.30 |  2:07.05 |    119355    |   128884
       12  | 28:38.35 |  2:16.58 |    128885    |   139142
       13  | 30:55.18 |  2:21.54 |    139143    |   149771
       14  | 33:16.72 |  4:46.36 |    149772    |   171257
       15  | 38:03.33 |  2:15.10 |    171258    |   181392
       16  | 40:18.43 |  2:58.53 |    181393    |   194795
       17  | 43:17.21 |  1:11.07 |    194796    |   200127
       18  | 44:28.28 |  1:08.71 |    200128    |   205298
       19  | 45:37.24 |  1:36.59 |    205299    |   212557
       20  | 47:14.08 |  3:21.20 |    212558    |   227652
       21  | 50:35.28 |  1:38.52 |    227653    |   235054
       22  | 52:14.05 |  2:45.09 |    235055    |   247438
       23  | 54:59.14 |  1:32.36 |    247439    |   254374
       24  | 56:31.50 |  1:41.50 |    254375    |   261999
       25  | 58:13.25 |  2:14.04 |    262000    |   272053
       26  | 60:27.29 |  1:36.30 |    272054    |   279283
       27  | 62:03.59 |  1:01.61 |    279284    |   283919
Track  1
     Filename E:\Jesper Kyd Discography - 2009.12.08 - Borderlands (SE-2072-2). Jesper Kyd – Prelude.wav
     Pre-gap length  0:00:02.00
     Peak level 94.4 %
     Track quality 100.0 %
     Test CRC E1589ED7
     Copy CRC E1589ED7
     Accurately ripped (confidence 4)  [9E6139D6]
     Copy OK
Track  2
     Filename E:\Jesper Kyd Discography - 2009.12.08 - Borderlands (SE-2072-2). Jesper Kyd – Welcome To Fyrestone.wav
     Pre-gap length  0:00:01.20
     Peak level 94.4 %
     Track quality 99.9 %
     Test CRC 901478CA
     Copy CRC 901478CA
     Accurately ripped (confidence 4)  [E1E081B3]
     Copy OK
Track  3
     Filename E:\Jesper Kyd Discography - 2009.12.08 - Borderlands (SE-2072-2). Raison Varner – Enter Skag Gully.wav
     Pre-gap length  0:00:01.20
     Peak level 94.4 %
     Track quality 100.0 %
     Test CRC 8BB817C0
     Copy CRC 8BB817C0
     Accurately ripped (confidence 4)  [F973510C]
     Copy OK
Track  4
     Filename E:\Jesper Kyd Discography - 2009.12.08 - Borderlands (SE-2072-2). Raison Varner – Fighting Off The Skags.wav
     Pre-gap length  0:00:01.20
     Peak level 94.4 %
     Track quality 100.0 %
     Test CRC BC78F6E9
     Copy CRC BC78F6E9
     Accurately ripped (confidence 4)  [5A44EB4D]
     Copy OK
Track  5
     Filename E:\Jesper Kyd Discography - 2009.12.08 - Borderlands (SE-2072-2). Sascha Dikiciyan & Cris Velasco – Removing The Bandit Threat.wav
     Pre-gap length  0:00:01.00
     Peak level 94.4 %
     Track quality 100.0 %
     Test CRC F9EB86CB
     Copy CRC F9EB86CB
     Accurately ripped (confidence 4)  [34E28B9A]
     Copy OK
Track  6
     Filename E:\Jesper Kyd Discography - 2009.12.08 - Borderlands (SE-2072-2). Raison Varner – Traversing The Deep.wav
     Pre-gap length  0:00:01.70
     Peak level 94.4 %
     Track quality 100.0 %
     Test CRC 88A1A8ED
     Copy CRC 88A1A8ED
     Accurately ripped (confidence 4)  [4EE6A3BA]
     Copy OK
Track  7
     Filename E:\Jesper Kyd Discography - 2009.12.08 - Borderlands (SE-2072-2). Sascha Dikiciyan & Cris Velasco – Fighting Sledge's Minions.wav
     Pre-gap length  0:00:01.50
     Peak level 94.4 %
     Track quality 100.0 %
     Test CRC 96508B0A
     Copy CRC 96508B0A
     Accurately ripped (confidence 4)  [5DF255CA]
     Copy OK
Track  8
     Filename E:\Jesper Kyd Discography - 2009.12.08 - Borderlands (SE-2072-2). Sascha Dikiciyan & Cris Velasco – Welcome to The Bunker.wav
     Pre-gap length  0:00:01.60
     Peak level 94.4 %
     Track quality 100.0 %
     Test CRC 1927E5C0
     Copy CRC 1927E5C0
     Accurately ripped (confidence 4)  [96A3F6C4]
     Copy OK
Track  9
     Filename E:\Jesper Kyd Discography - 2009.12.08 - Borderlands (SE-2072-2). Sascha Dikiciyan & Cris Velasco – Smoking Out The Bunker.wav
     Pre-gap length  0:00:01.50
     Peak level 94.4 %
     Track quality 100.0 %
     Test CRC 81CCA36B
     Copy CRC 81CCA36B
     Accurately ripped (confidence 4)  [B6FDCA9B]
     Copy OK
Track 10
     Filename E:\Jesper Kyd Discography - 2009.12.08 - Borderlands (SE-2072-2). Sascha Dikiciyan & Cris Velasco – Burning Rubber and Shooting Bullets.wav
     Pre-gap length  0:00:01.50
     Peak level 94.4 %
     Track quality 100.0 %
     Test CRC 1741F1FF
     Copy CRC 1741F1FF
     Accurately ripped (confidence 4)  [CA03170F]
     Copy OK
Track 11
     Filename E:\Jesper Kyd Discography - 2009.12.08 - Borderlands (SE-2072-2). Jesper Kyd – The Junkyard Vista.wav
     Pre-gap length  0:00:01.50
     Peak level 94.4 %
     Track quality 100.0 %
     Test CRC F0D5A914
     Copy CRC F0D5A914
     Accurately ripped (confidence 4)  [CFEAA015]
     Copy OK
Track 12
     Filename E:\Jesper Kyd Discography - 2009.12.08 - Borderlands (SE-2072-2). Raison Varner – Welcome to The Trash Coast.wav
     Pre-gap length  0:00:02.00
     Peak level 94.4 %
     Track quality 100.0 %
     Test CRC AB9CDD1E
     Copy CRC AB9CDD1E
     Accurately ripped (confidence 4)  [A66D5A75]
     Copy OK
Track 13
     Filename E:\Jesper Kyd Discography - 2009.12.08 - Borderlands (SE-2072-2). Raison Varner – The Rakkhive Emerges.wav
     Pre-gap length  0:00:02.00
     Peak level 94.4 %
     Track quality 100.0 %
     Test CRC 58B7139A
     Copy CRC 58B7139A
     Accurately ripped (confidence 4)  [DCDEF0AE]
     Copy OK
Track 14
     Filename E:\Jesper Kyd Discography - 2009.12.08 - Borderlands (SE-2072-2). Raison Varner – Assaulting Krom's Canyon.wav
     Pre-gap length  0:00:01.50
     Peak level 94.4 %
     Track quality 100.0 %
     Test CRC 89AE8364
     Copy CRC 89AE8364
     Accurately ripped (confidence 4)  [BB90F03B]
     Copy OK
Track 15
     Filename E:\Jesper Kyd Discography - 2009.12.08 - Borderlands (SE-2072-2). Raison Varner – Battling Krom's Minions.wav
     Pre-gap length  0:00:01.20
     Peak level 95.4 %
     Track quality 99.9 %
     Test CRC 9AEA16E1
     Copy CRC 9AEA16E1
     Accurately ripped (confidence 4)  [8F0005A2]
     Copy OK
Track 16
     Filename E:\Jesper Kyd Discography - 2009.12.08 - Borderlands (SE-2072-2). Sascha Dikiciyan & Cris Velasco – Fighting Krom and His Gun.wav
     Pre-gap length  0:00:01.40
     Peak level 94.4 %
     Track quality 100.0 %
     Test CRC F636FCE8
     Copy CRC F636FCE8
     Accurately ripped (confidence 4)  [929540E7]
     Copy OK
Track 17
     Filename E:\Jesper Kyd Discography - 2009.12.08 - Borderlands (SE-2072-2). Sascha Dikiciyan & Cris Velasco – Trash The Bandits.wav
     Pre-gap length  0:00:02.00
     Peak level 94.4 %
     Track quality 99.8 %
     Test CRC 7F4341E7
     Copy CRC 7F4341E7
     Accurately ripped (confidence 4)  [A7C71945]
     Copy OK
Track 18
     Filename E:\Jesper Kyd Discography - 2009.12.08 - Borderlands (SE-2072-2). Sascha Dikiciyan & Cris Velasco – Trash The Bandits Some More.wav
     Pre-gap length  0:00:01.40
     Peak level 94.4 %
     Track quality 100.0 %
     Test CRC 15D1A6EF
     Copy CRC 15D1A6EF
     Accurately ripped (confidence 4)  [AA2816C7]
     Copy OK
Track 19
     Filename E:\Jesper Kyd Discography - 2009.12.08 - Borderlands (SE-2072-2). Jesper Kyd – Welcome To The Wastelands.wav
     Pre-gap length  0:00:02.00
     Peak level 84.4 %
     Track quality 100.0 %
     Test CRC 1DD93C39
     Copy CRC 1DD93C39
     Accurately ripped (confidence 4)  [C928050F]
     Copy OK
Track 20
     Filename E:\Jesper Kyd Discography - 2009.12.08 - Borderlands (SE-2072-2). Raison Varner – Traveling To The Vault.wav
     Pre-gap length  0:00:02.00
     Peak level 94.4 %
     Track quality 100.0 %
     Test CRC F58B518C
     Copy CRC F58B518C
     Accurately ripped (confidence 4)  [B568E19F]
     Copy OK
Track 21
     Filename E:\Jesper Kyd Discography - 2009.12.08 - Borderlands (SE-2072-2). Raison Varner – Destroying the Destroyer.wav
     Pre-gap length  0:00:02.00
     Peak level 95.4 %
     Track quality 100.0 %
     Test CRC 61F6DEF5
     Copy CRC 61F6DEF5
     Accurately ripped (confidence 4)  [2DDEB414]
     Copy OK
Track 22
     Filename E:\Jesper Kyd Discography - 2009.12.08 - Borderlands (SE-2072-2). Jesper Kyd – Bonus - Bring Your Guns.wav
     Pre-gap length  0:00:02.00
     Peak level 94.4 %
     Track quality 100.0 %
     Test CRC 5B952BBB
     Copy CRC 5B952BBB
     Accurately ripped (confidence 4)  [4C08B13C]
     Copy OK
Track 23
     Filename E:\Jesper Kyd Discography - 2009.12.08 - Borderlands (SE-2072-2). Sascha Dikiciyan & Cris Velasco – Bonus - Borderlands.wav
     Pre-gap length  0:00:02.00
     Peak level 94.4 %
     Track quality 100.0 %
     Test CRC 9DED9D7A
     Copy CRC 9DED9D7A
     Accurately ripped (confidence 4)  [1DADB7A5]
     Copy OK
Track 24
     Filename E:\Jesper Kyd Discography - 2009.12.08 - Borderlands (SE-2072-2). Tim Larkin – Bonus - The Old New Haven.wav
     Pre-gap length  0:00:02.00
     Peak level 94.4 %
     Track quality 100.0 %
     Test CRC 258A8490
     Copy CRC 258A8490
     Accurately ripped (confidence 4)  [20E76C3C]
     Copy OK
Track 25
     Filename E:\Jesper Kyd Discography - 2009.12.08 - Borderlands (SE-2072-2). Tim Larkin – Bonus - Exploring the Mine.wav
     Pre-gap length  0:00:02.00
     Peak level 94.4 %
     Track quality 100.0 %
     Test CRC 6899DA40
     Copy CRC 6899DA40
     Accurately ripped (confidence 4)  [1B7D60D7]
     Copy OK
Track 26
     Filename E:\Jesper Kyd Discography - 2009.12.08 - Borderlands (SE-2072-2). Sascha Dikiciyan & Cris Velasco – Bonus - Exploring Overlook.wav
     Pre-gap length  0:00:01.73
     Peak level 94.4 %
     Track quality 100.0 %
     Test CRC 9993CFD1
     Copy CRC 9993CFD1
     Accurately ripped (confidence 4)  [ADEAB24D]
     Copy OK
Track 27
     Filename E:\Jesper Kyd Discography - 2009.12.08 - Borderlands (SE-2072-2). Sascha Dikiciyan & Cris Velasco – Bonus - The Threat At Overlook.wav
     Pre-gap length  0:00:01.74
     Peak level 94.4 %
     Track quality 100.0 %
     Test CRC 1C68401F
     Copy CRC 1C68401F
     Accurately ripped (confidence 4)  [E4CC0E1C]
     Copy OK
All tracks accurately ripped
No errors occurred
End of status report

Содержание индексной карты (.CUE)

Код:
REM GENRE Soundtrack
REM DATE 2009
REM DISCID C00EC91B
REM COMMENT "ExactAudioCopy v0.99pb5"
PERFORMER "Various"
TITLE "Borderlands Original Soundtrack"
FILE "01. Jesper Kyd – Prelude.wav" WAVE
  TRACK 01 AUDIO
    TITLE "Prelude"
    PERFORMER "Jesper Kyd"
    INDEX 01 00:00:00
  TRACK 02 AUDIO
    TITLE "Welcome To Fyrestone"
    PERFORMER "Jesper Kyd"
    INDEX 00 04:21:66
FILE "02. Jesper Kyd – Welcome To Fyrestone.wav" WAVE
    INDEX 01 00:00:00
  TRACK 03 AUDIO
    TITLE "Enter Skag Gully"
    PERFORMER "Raison Varner"
    INDEX 00 04:32:52
FILE "03. Raison Varner – Enter Skag Gully.wav" WAVE
    INDEX 01 00:00:00
  TRACK 04 AUDIO
    TITLE "Fighting Off The Skags"
    PERFORMER "Raison Varner"
    INDEX 00 02:47:17
FILE "04. Raison Varner – Fighting Off The Skags.wav" WAVE
    INDEX 01 00:00:00
  TRACK 05 AUDIO
    TITLE "Removing The Bandit Threat"
    PERFORMER "Sascha Dikiciyan & Cris Velasco"
    INDEX 00 02:20:70
FILE "05. Sascha Dikiciyan & Cris Velasco – Removing The Bandit Threat.wav" WAVE
    INDEX 01 00:00:00
  TRACK 06 AUDIO
    TITLE "Traversing The Deep"
    PERFORMER "Raison Varner"
    INDEX 00 01:33:59
FILE "06. Raison Varner – Traversing The Deep.wav" WAVE
    INDEX 01 00:00:00
  TRACK 07 AUDIO
    TITLE "Fighting Sledge's Minions"
    PERFORMER "Sascha Dikiciyan & Cris Velasco"
    INDEX 00 02:26:38
FILE "07. Sascha Dikiciyan & Cris Velasco – Fighting Sledge's Minions.wav" WAVE
    INDEX 01 00:00:00
  TRACK 08 AUDIO
    TITLE "Welcome to The Bunker"
    PERFORMER "Sascha Dikiciyan & Cris Velasco"
    INDEX 00 03:12:70
FILE "08. Sascha Dikiciyan & Cris Velasco – Welcome to The Bunker.wav" WAVE
    INDEX 01 00:00:00
  TRACK 09 AUDIO
    TITLE "Smoking Out The Bunker"
    PERFORMER "Sascha Dikiciyan & Cris Velasco"
    INDEX 00 01:28:71
FILE "09. Sascha Dikiciyan & Cris Velasco – Smoking Out The Bunker.wav" WAVE
    INDEX 01 00:00:00
  TRACK 10 AUDIO
    TITLE "Burning Rubber and Shooting Bullets"
    PERFORMER "Sascha Dikiciyan & Cris Velasco"
    INDEX 00 01:39:12
FILE "10. Sascha Dikiciyan & Cris Velasco – Burning Rubber and Shooting Bullets.wav" WAVE
    INDEX 01 00:00:00
  TRACK 11 AUDIO
    TITLE "The Junkyard Vista"
    PERFORMER "Jesper Kyd"
    INDEX 00 01:52:10
FILE "11. Jesper Kyd – The Junkyard Vista.wav" WAVE
    INDEX 01 00:00:00
  TRACK 12 AUDIO
    TITLE "Welcome to The Trash Coast"
    PERFORMER "Raison Varner"
    INDEX 00 02:05:05
FILE "12. Raison Varner – Welcome to The Trash Coast.wav" WAVE
    INDEX 01 00:00:00
  TRACK 13 AUDIO
    TITLE "The Rakkhive Emerges"
    PERFORMER "Raison Varner"
    INDEX 00 02:14:58
FILE "13. Raison Varner – The Rakkhive Emerges.wav" WAVE
    INDEX 01 00:00:00
  TRACK 14 AUDIO
    TITLE "Assaulting Krom's Canyon"
    PERFORMER "Raison Varner"
    INDEX 00 02:20:04
FILE "14. Raison Varner – Assaulting Krom's Canyon.wav" WAVE
    INDEX 01 00:00:00
  TRACK 15 AUDIO
    TITLE "Battling Krom's Minions"
    PERFORMER "Raison Varner"
    INDEX 00 04:45:16
FILE "15. Raison Varner – Battling Krom's Minions.wav" WAVE
    INDEX 01 00:00:00
  TRACK 16 AUDIO
    TITLE "Fighting Krom and His Gun"
    PERFORMER "Sascha Dikiciyan & Cris Velasco"
    INDEX 00 02:13:45
FILE "16. Sascha Dikiciyan & Cris Velasco – Fighting Krom and His Gun.wav" WAVE
    INDEX 01 00:00:00
  TRACK 17 AUDIO
    TITLE "Trash The Bandits"
    PERFORMER "Sascha Dikiciyan & Cris Velasco"
    INDEX 00 02:56:53
FILE "17. Sascha Dikiciyan & Cris Velasco – Trash The Bandits.wav" WAVE
    INDEX 01 00:00:00
  TRACK 18 AUDIO
    TITLE "Trash The Bandits Some More"
    PERFORMER "Sascha Dikiciyan & Cris Velasco"
    INDEX 00 01:09:42
FILE "18. Sascha Dikiciyan & Cris Velasco – Trash The Bandits Some More.wav" WAVE
    INDEX 01 00:00:00
  TRACK 19 AUDIO
    TITLE "Welcome To The Wastelands"
    PERFORMER "Jesper Kyd"
    INDEX 00 01:06:71
FILE "19. Jesper Kyd – Welcome To The Wastelands.wav" WAVE
    INDEX 01 00:00:00
  TRACK 20 AUDIO
    TITLE "Traveling To The Vault"
    PERFORMER "Raison Varner"
    INDEX 00 01:34:59
FILE "20. Raison Varner – Traveling To The Vault.wav" WAVE
    INDEX 01 00:00:00
  TRACK 21 AUDIO
    TITLE "Destroying the Destroyer"
    PERFORMER "Raison Varner"
    INDEX 00 03:19:20
FILE "21. Raison Varner – Destroying the Destroyer.wav" WAVE
    INDEX 01 00:00:00
  TRACK 22 AUDIO
    TITLE "Bonus - Bring Your Guns"
    PERFORMER "Jesper Kyd"
    INDEX 00 01:36:52
FILE "22. Jesper Kyd – Bonus - Bring Your Guns.wav" WAVE
    INDEX 01 00:00:00
  TRACK 23 AUDIO
    TITLE "Bonus - Borderlands"
    PERFORMER "Sascha Dikiciyan & Cris Velasco"
    INDEX 00 02:43:09
FILE "23. Sascha Dikiciyan & Cris Velasco – Bonus - Borderlands.wav" WAVE
    INDEX 01 00:00:00
  TRACK 24 AUDIO
    TITLE "Bonus - The Old New Haven"
    PERFORMER "Tim Larkin"
    INDEX 00 01:30:36
FILE "24. Tim Larkin – Bonus - The Old New Haven.wav" WAVE
    INDEX 01 00:00:00
  TRACK 25 AUDIO
    TITLE "Bonus - Exploring the Mine"
    PERFORMER "Tim Larkin"
    INDEX 00 01:39:50
FILE "25. Tim Larkin – Bonus - Exploring the Mine.wav" WAVE
    INDEX 01 00:00:00
  TRACK 26 AUDIO
    TITLE "Bonus - Exploring Overlook"
    PERFORMER "Sascha Dikiciyan & Cris Velasco"
    INDEX 00 02:12:06
FILE "26. Sascha Dikiciyan & Cris Velasco – Bonus - Exploring Overlook.wav" WAVE
    INDEX 01 00:00:00
  TRACK 27 AUDIO
    TITLE "Bonus - The Threat At Overlook"
    PERFORMER "Sascha Dikiciyan & Cris Velasco"
    INDEX 00 01:34:31
FILE "27. Sascha Dikiciyan & Cris Velasco – Bonus - The Threat At Overlook.wav" WAVE
    INDEX 01 00:00:00
--


[trackeroc.ru].8600.torrent 
Торрент: Зарегистрирован   [ 2015-10-11 19:23 ]

Скачать торрент

18 KB

Статус: проверено
Скачан: 28 раз
Размер: 369 MB
 

Admin (11-окт-15)
Похожие торренты
Форум Тема Автор Размер
RPG ролевые игры Divinity Original Sin 2 [v3.0.15.252] (2016) (ENG) Early Access Admin 7 GB
Русификаторы для игр Borderlands 2 - Русификатор (звук) - от GameSVoiCE BiOS 1.12 GB
Action экшены Counter-Strike 1.6 Русская версия 47/48 Original | 2016 (ENG+RUS) Zungarik 171 MB
Xbox 360 | Freeboot Borderlands: The Pre-Sequel (2014) [Xbox360] Freeboot [Unofficial/dlc/tu] [Ru] [Complete E BiOS 7.65 GB
RPG ролевые игры Divinity: Original Sin - Enhanced Edition (2015) [RUS|ENG] RePack от xatab Admin 8.84 GB

_________________
[Профиль] [ЛС]
Показать сообщения:    
Ответить на тему

Текущее время: Сегодня 11:51

Часовой пояс: GMT + 4



Вы не можете начинать темы
Вы не можете отвечать на сообщения
Вы не можете редактировать свои сообщения
Вы не можете удалять свои сообщения
Вы не можете голосовать в опросах
Вы не можете прикреплять файлы к сообщениям
Вы можете скачивать файлы