Бык и Шпиндель [серии 1-4 из 4] (Анатолий Артамонов) [2015, детектив, комедия, HDTVRip]

Ответить на тему

Статистика раздачи [Обновить пиров]
Размер:  2.48 GB   |    Зарегистрирован:  1 год 1 месяц   |    Скачан:  1 раз
DL-List: Нет

Полного источника не было: 1 год 1 месяц

 
 
 
 
Автор Сообщение

Матвей ®

Стаж: 1 год 2 месяца

Сообщений: 236

Откуда: Челябинск


Пост 15-Окт-2015 12:47

[Цитировать]

Бык и Шпиндель (серии 1-4 из 4)--- Производство: Россия, ПЦ "Браво" по заказу НТВ
Жанр: детектив, комедия-Режиссер: Анатолий Артамонов
Актеры: Игорь Лифанов, Владимир Зайцев, Наталья Гудкова, Руслан Щедрин, Денис Беспалый, Александр Мельник, Игорь Шевчук-Описание:
Освободившийся из заключения вор-неудачник Василий Шпинягин по кличке Шпиндель возвращается в родной городок Приморск, где встречает своего давнего врага — следователя по фамилии Бык. Того самого, который когда-то посадил Шпинделя за решетку.
Впрочем, самого Быка из органов давно выгнали, и теперь он ведёт жизнь неудачника на старой даче. Рядом по случаю поселяется и Шпиндель, что подозрительного Быка раздражает, а у безалаберного весельчака Шпинделя вызывает сплошные подколы и шутки в адрес Быка. Столкновение между этими двумя противоположностями неизбежно, учитывая еще и тот факт, что оба героя проявляют симпатию к продавщице Зойке…

КиноПоиск
Дата премьеры в РФ: 30 января 2015
Продолжительность: ~ 00:45:00 серия
Качество видео: HDTVRip
Видео: XVID, 720x400 (16:9), ~1800 Kbps
Аудио: AC3, 2 ch, 192 Kbps

MediaInfo:

Код:
Общее
Полное имя                               : F:\DOWNLOADS\Бык и Шпиндель (2015) HDTVRip\Бык и Шпиндель - 01 серия.avi
Формат                                   : AVI
Формат/Информация                        : Audio Video Interleave
Размер файла                             : 636 Мбайт
Продолжительность                        : 44 м.
Общий поток                              : 2002 Кбит/сек
Программа кодирования                    : VirtualDubMod 1.5.10.3 | [url=http://www.virtualdub-fr.org]www.virtualdub-fr.org[/url] || (build 2550/release)
Библиотека кодирования                   : VirtualDubMod build 2550/release
Видео
Идентификатор                            : 0
Формат                                   : MPEG-4 Visual
Профиль формата                          : Advanced Simple@L5
Параметр BVOP формата                    : 1
Параметр QPel формата                    : Нет
Параметр GMC формата                     : Без точки перехода
Параметр матрицы формата                 : Default (MPEG)
Идентификатор кодека                     : XVID
Идентификатор кодека/Подсказка           : XviD
Продолжительность                        : 44 м.
Битрейт                                  : 1800 Кбит/сек
Ширина                                   : 720 пикселей
Высота                                   : 400 пикселей
Соотношение сторон                       : 16:9
Частота кадров                           : 25,000 кадров/сек
Цветовое пространство                    : YUV
Субдискретизация насыщенности            : 4:2:0
Битовая глубина                          : 8 бит
Тип развёртки                            : Прогрессивная
Метод сжатия                             : С потерями
Бит/(Пиксели*Кадры)                      : 0.250
Размер потока                            : 572 Мбайт (90%)
Библиотека кодирования                   : XviD 73
Аудио
Идентификатор                            : 1
Формат                                   : AC-3
Формат/Информация                        : Audio Coding 3
Расширение режима                        : CM (complete main)
Параметр Endianness формата              : Big
Идентификатор кодека                     : 2000
Продолжительность                        : 44 м.
Вид битрейта                             : Постоянный
Битрейт                                  : 192 Кбит/сек
Каналы                                   : 2 канала
Расположение каналов                     : Front: L R
Частота                                  : 48,0 КГц
Метод сжатия                             : С потерями
Размер потока                            : 61,0 Мбайт (10%)
Выравнивание                             : Разделение по промежуткам
Продолжительность промежутка             : 40  мс. (1,00 видеокадр)
Время предзагрузки промежутка            : 500  мс.

Скриншоты:



Смотреть онлайн

[trackeroc.ru].8812.torrent 
Торрент: Зарегистрирован   [ 2015-10-15 12:47 ]

Скачать торрент

14 KB

Статус: проверено
Скачан: 16 раз
Размер: 2.48 GB
 


_________________

[Профиль] [ЛС]
Показать сообщения:    
Ответить на тему

Текущее время: Сегодня 07:57

Часовой пояс: GMT + 4



Вы не можете начинать темы
Вы не можете отвечать на сообщения
Вы не можете редактировать свои сообщения
Вы не можете удалять свои сообщения
Вы не можете голосовать в опросах
Вы не можете прикреплять файлы к сообщениям
Вы можете скачивать файлы