Чебурашка / Cheburashka (2013) WEBRip [H.264/720p-LQ]

Ответить на тему

Статистика раздачи [Обновить пиров]
Размер:  1.99 GB   |    Зарегистрирован:  1 год 4 месяца   |    Скачан:  0 раз
DL-List: Нет

Полного источника не было: 1 год 3 месяца

 
 
 
 
Автор Сообщение

BiOS ®

Стаж: 2 года 7 месяцев

Сообщений: 1732

Откуда: Raccoon City


Пост 19-Июл-2015 19:48

[Цитировать]

Чебурашка / Cheburashka
«Наш няшка – Чебурашка»
- Год выпуска: 2013
Жанр: Комедия, мультсериал
Выпущено: Япония, Россия-Режиссер: Макото Накамура
Актеры: А.Ферапонтов, А.Груздев, О.Зверева, Д.Филимонов, Л.Брохман, А.Пожаров, О.Шорохова
Перевод: Дублированный [Студия "Ориол"]
Описание: В овощном магазине одного города в ящике из-под апельсинов нашли непонятное спящее животное с большими круглыми ушами. Имя Чебурашка зверек получил потому, что все время падал, когда его пытались посадить на край ящика. Чебурашку попробовали отвести в зоопарк, но там неведомого зверя брать не захотели, и он поселился в телефонной будке. В это же время одинокий крокодил по имени Гена решил завести себе друзей, для чего развесил объявления об их поиске. Одно из таких объявлений прочитал грустный Чебурашка. Так и подружились крокодил Гена и неизвестное науке создание Чебурашка. Когда в город приехал цирк, Гена и Чебурашка решили поступить в него на работу. Их не взяли, но друзья встретили девочку Машу, которая тоже мечтала о работе в цирке, и взялись помочь ей в тренировках, чтобы она смогла осуществить свою мечту.
В этом мультфильме нет истории "Чебурашка идет в зоопарк"-Дополнительная информация:-Видеокодек: MPEG-4 AVC/H.264
Битрейт видео: ~3219 kb/s
Размер кадра: 1280x720
Качество видео: WEBRip [H.264/720p-LQ]
Аудиокодек: AC3 2.0
Битрейт аудио: 256 kb/s

MediaInfo

Код:
Общее
Уникальный идентификатор : 213502537414890381705674204571354446914 (0xA09F17CEE9DABC56B2D8C8A5C60ABC42)
Полное имя : D:\Фильмы\Cheburashka.2014.WEBRip.720p.mkv
Формат : Matroska
Версия формата : Version 4 / Version 2
Размер файла : 1,99 Гбайт
Продолжительность : 1 ч. 20 м.
Общий поток : 3546 Кбит/сек
Название фильма : profile.php?mode=viewprofile&u=22488948
Дата кодирования : UTC 2014-06-22 06:54:40
Программа кодирования : mkvmerge v6.9.1 ('Blue Panther') 64bit built on Apr 18 2014 18:23:38
Библиотека кодирования : libebml v1.3.0 + libmatroska v1.4.1
Видео
Идентификатор : 1
Формат : AVC
Формат/Информация : Advanced Video Codec
Профиль формата : Main@L5.1
Параметр CABAC формата : Да
Параметр ReFrames формата : 1 кадр
Идентификатор кодека : V_MPEG4/ISO/AVC
Продолжительность : 1 ч. 20 м.
Битрейт : 3219 Кбит/сек
Ширина : 1280 пикселей
Высота : 720 пикселей
Соотношение сторон : 16:9
Режим частоты кадров : Постоянный
Частота кадров : 25,000 кадров/сек
Цветовое пространство : YUV
Субдискретизация насыщенности : 4:2:0
Битовая глубина : 8 бит
Тип развёртки : Прогрессивная
Бит/(Пиксели*Кадры) : 0.140
Размер потока : 1,81 Гбайт (91%)
Default : Да
Forced : Нет
Аудио
Идентификатор : 2
Формат : AC-3
Формат/Информация : Audio Coding 3
Расширение режима : CM (complete main)
Параметр Endianness формата : Big
Идентификатор кодека : A_AC3
Продолжительность : 1 ч. 20 м.
Вид битрейта : Постоянный
Битрейт : 256 Кбит/сек
Каналы : 2 канала
Расположение каналов : Front: L R
Частота : 48,0 КГц
Битовая глубина : 16 бит
Метод сжатия : С потерями
Размер потока : 147 Мбайт (7%)
Default : Да
Forced : Нет

Avdump

Код:
File: D:\Фильмы\Cheburashka.2014.WEBRip.720p.mkv
Duration: 01:20:19 (4819.33) - WARNING: Differs from video duration! (0.69 sec)
Track #1: video
lang: und (1)
codc: V_MPEG4/ISO/AVC -> H264/AVC (22)
reso: 1280x720 (1280x720) -> 16:9
fram: 25.000000 fps
rate: 3289 kbps (3288.515381)
dura: 01:20:19 (4818.640137)
size: 1.84 GB (1980771561)
Track #2: audio
lang: und -> Unknown (1)
codc: A_AC3 -> AC3 (2)
chan: 2 -> Stereo
samp: 48000 Hz
rate: 256 kbps (256.04)
dura: 01:20:19 (4819.26)
size: 147.09 MB (154237877)
Sizes: (check sanity)
disk: 1.99 GB (2136074723)
trac: 1.99 GB (2135009438) [based on track size]
bitr: 1.99 GB (2134989479) [based on bitrate]
tdif: 1.02 MB (1065285) 0.04%
bdif: 1.03 MB (1085243) 0.05%

Скриншоты



Смотреть онлайн

[trackeroc.ru].7105.torrent 
 ЗОЛОТАЯ РАЗДАЧА! СКАЧАННОЕ НЕ ЗАСЧИТЫВАЕТСЯ! 
Торрент: Зарегистрирован   [ 2015-07-19 19:51 ]

Скачать торрент

21 KB

Статус: проверено
Скачан: 19 раз
Размер: 1.99 GB
 

Admin (19-июл-15)
Похожие торренты
Форум Тема Автор Размер
Зарубежные Мультсериалы Чебурашка Арэрэ! / Cheburashka Arere? (2010) HDTVRip 720p BiOS 915 MB
Отечественные Чебурашка и Крокодил Гена [1967-1983] BDRip [1080p] BiOS 4.4 GB

_________________
[Профиль] [ЛС]
Показать сообщения:    
Ответить на тему

Текущее время: Сегодня 07:55

Часовой пояс: GMT + 4



Вы не можете начинать темы
Вы не можете отвечать на сообщения
Вы не можете редактировать свои сообщения
Вы не можете удалять свои сообщения
Вы не можете голосовать в опросах
Вы не можете прикреплять файлы к сообщениям
Вы можете скачивать файлы