Чебурашка и Крокодил Гена [1967-1983] BDRip [1080p]

Ответить на тему

Статистика раздачи [Обновить пиров]
Размер:  4.4 GB   |    Зарегистрирован:  1 год 4 месяца   |    Скачан:  4 раза
Сидов:  26  [  0 KB/s  ]   Личеров:  3  [  0 KB/s  ]   Подробная статистика пиров
   
 
Автор Сообщение

BiOS ®

Стаж: 2 года 7 месяцев

Сообщений: 1732

Откуда: Raccoon City


Пост 19-Июл-2015 19:10

[Цитировать]

Чебурашка и Крокодил Гена
«Крокодил Гена и его друзья»
- Страна: СССР
Жанр: мультфильм, короткометражный, семейный.
Продолжительность: 01:16:37
Год выпуска: 1967-1983
Русские субтитры: нет
Автор: Эдуард Успенский
Режиссёр: Роман Качанов
Композитор: Владимир Шаинский, Михаил Зив
Роли озвучивали: Василий Ливанов, Клара Румянова, Владимир Раутбарт, Владимир Кенигсон, Татьяна Дмитриева, Владимир Ферапонтов, Ирина Мазинг, Георгий Бурков, Юрий Андреев.
Описание: Добрый крокодил Гена работал в зоопарке... крокодилом, а по вечерам очень тосковал от одиночества, пока не дал объявление о том, что ищет друзей. И друзья появились - девочка с собачкой и Чебурашка - неизвестное науке создание, но зато доброе и милое. И вскоре начались у них удивительные приключения, о которых поведал в своей сказке замечательный детский писатель Эдуард Успенский.
Также в этом сборнике вы найдете еще один нежный и трогательный мультфильм "Варежка", созданный по сценарию Жанны Витензон. Детская мечта, фантазия и реальная действительность благодаря таланту мультипликаторов органично переплелись в художественном произведении.-В сборник вошли мультфильмы:
----------------------------------------------------------------------
1. Крокодил Гена (1969, 19min 30s)
Описание: «Крокодил Гена» — кукольный мультипликационный фильм Романа Качанова, выпущенный студией «Союзмультфильм» в 1969 году.
Фильм снят по мотивам книги Эдуарда Успенского «Крокодил Гена и его друзья». В этом фильме впервые появились широко известные до сих пор анимационные образы — Крокодил Гена, Чебурашка и Шапокляк.
Крокодил Гена работает в зоопарке — крокодилом. Каждый день вечером он возвращается домой в свою одинокую квартиру. Наконец ему надоедает играть самому с собой в шахматы и Гена решает завести себе друзей. На объявления расклеенные по городу откликаются звери и люди. Первой приходит девочка Галя с бездомным щенком, а вслед за ней Чебурашка…

Интересные факты:

В мае 2010 года в Японии был представлен мультфильм «Крокодил Гена» в точности повторяющий фильм 1969-го года.
В мультфильме звучит «Песня Шапокляк» Михаила Зива на слова Эдуарда Успенского:
Кто людям помогает — тот тратит время зря.
Хорошими делами прославиться нельзя.
Поэтому я всем и каждому советую
Всё делать точно так,
Как делает старуха по кличке Шапокляк.
----------------------------------------------------------------------
2. Чебурашка (1972, 19min 00s)
Описание: У крокодила Гены день рождения. Его поздравляет Чебурашка и дарит ему подарок. Дальше друзья занимаются тем, что пытаются построить детскую площадку и помогают пионерам собирать металлолом.

Интересные факты:

В первом мультфильме «Крокодил Гена» связанная с идеологическим отделом КГБ редколлегия «Союзмультфильма» увидела в строительстве домика друзей аналогию со строительством СЭВ и фильм был выпущен в прокат с самой низкой третьей категорией, в результате чего киногруппа не получила за фильм премию, а сама картина не была рекомендована для широкого проката.
Абсурдные претензии редколлегии были и ко второму фильму «Чебурашка» . Высказали мнение, что этот фильм порочит пионерскую организацию. По требованию редактуры режиссер фильма Роман Качанов вставил в картину реплику: «В пионеры берут самых лучших».
В последнем мультфильме «Чебурашка идёт в школу» Чебурашка не сумел прочесть телеграмму от Гены. Хотя в мультфильме «Крокодил Гена» Чебурашка нашёл Гену по объявлению, а в мультфильме «Чебурашка» даже прочитал двустишие на плакате пионеров: «Всё ненужное на слом, соберём металлолом».
Песня Крокодила Гены была также переведена на финский язык, а также на японский, английский, немецкий, шведский, болгарский, польский и другие языки. Во всех этих странах в разное время выходили на экраны фильмы Романа Качанова «Крокодил Гена», «Чебурашка» и «Шапокляк».

Памятники Чебурашке:

Памятник, изображающий Чебурашку, крокодила Гену, старуху Шапокляк и крыску Лариску, установлен в 2005 году в подмосковном городе Раменское (скульптор Олег Ершов). Также памятник Чебурашке планировалось установить в 2007 году в Нижнем Новгороде.
29 мая 2008 года на территории детского сада номер 2550 в Восточном административном округе Москвы был открыт музей Чебурашки. Среди его экспонатов — пишущая машинка, на которой Эдуард Успенский создал историю Чебурашки.
Ещё один памятник крокодилу Гене и Чебурашке, наряду со скульптурами других героев культовых советских мультфильмов, установлен в Хабаровске возле городских прудов, неподалёку от ледовой арены.
Также памятник Чебурашке и крокодилу Гене установлен в г. Кременчуг (Полтавская обл., Украина).
Скульптуры Чебурашки и крокодила Гены установлены в г. Днепропетровск в парке им. Лазаря Глобы.
Планируется поставить в 2011 году в г. Чебоксары памятник Чебурашке. Чебоксарцы очень ценят Чебурашку за: "Чебуреки, Чебоксары..."
----------------------------------------------------------------------
3. Шапокляк (1974, 18min 50s)
Описание: Крокодил Гена и Чебурашка отправляются на морской отдых на поезде. Шапокляк крадёт их билеты, и друзей высаживают на первой же станции. Дальше друзья совместно борются с туристами-браконьерами и за экологическую чистоту лесов Подмосковья.

Интересные факты:

Чебурашка с Геной на перроне вокзала садятся в поезд сообщением «Москва — Ялта». При этом с Ялтой отсутствует железнодорожное сообщение (поезда идут до Симферополя)
Расположившись в гнезде на вершине дерева, Шапокляк, разглядывая в стереотрубу торт, говорит: «Тортик! Свеженький!» При этом четко видна дата на коробке торта: 1 апреля. Однако мы видим, что в лесу уже созрели ягоды и орехи, а следовательно, время действия мультфильма — конец июля—август.
Дети дарят лягушонка со словами "Но он зеленый!" До этого, в лесу у загрязненной заводом речки, мы видим лягушонка в сине-красных пятнах. Крокодил Гена, заткнув трубу завода, очистил речку, в с ней - и живущего там лягушонка.
Крокодила Гену и Чебурашку высадили на первой же остановке аж за 199 км от Москвы. Хотя это в принципе возможно. Например, поезд «Москва — Воронеж» имеет первую остановку «Узуново», а это около 170-ти км от МКАД.
Поезд в Подмосковье идет по однопутной линии, в то время, как на самом деле она двухпутная.
На декорациях железной дороги отсутствует контактная сеть.
Существует японская версия мультфильма.
----------------------------------------------------------------------
4. Чебурашка идёт в школу (1983, 18min 50s)
Описание:Чебурашка не встретил Крокодила Гену в аэропорту. Оказывается, Чебурашка не владеет грамотой и не смог прочитать телеграмму Гены. Выход один — нужно идти в школу, тем более что завтра как раз 1 сентября. Школа же закрыта на ремонт, который никак не могут закончить.

Интересные факты:

Чебурашка собирает кубики, рисунком которых является Крокодил Гена
В мультфильме «Крокодил Гена» Чебурашка умеет читать (объявление Гены о знакомстве, записку раскаявшейся Шапокляк). В мультфильме «Чебурашка» герой читает вслух транспарант с призывом о сборе металлолома. При этом к четвертой серии его приключений («Чебурашка идет в школу») ушастый герой читать уже не умеет.
Чебурашка не сумел прочесть телеграмму от Гены. Хотя в мультфильме «Крокодил Гена» Чебурашка нашёл Гену по объявлению, позже без особых проблем прочитал письмо Шапокляк «Я больше не буду…», а в мультфильме «Чебурашка» даже прочитал двустишие на плакате пионеров: «Всё ненужное на слом, соберём металлолом».
В переводном варианте мультфильма на литовский язык, Чебурашка именовался как Кулверстукас. В связи с чем, эпизод поиска Чебурашки в словаре звучал так: «Чебуреки — есть, Чебоксары — есть, а Кулверстукаса — нет»"
----------------------------------------------------------------------
5. Варежка (1967, 9min 53s)
Описание: Девочка очень мечтает завести себе собаку, но строгая и занятая мама не разрешает ей этого. Тогда девочка начинает играть со своей вязаной варежкой, представляя, будто это щенок. Девочка так сильно хочет иметь собаку, что варежка в её мечтах превращается в настоящего щенка, сохраняя при этом «вязаную» фактуру и узор из трёх чёрных шашечек на спине.
Обрадованная девочка ведёт своего нового друга на выставку собак, на которой четвероногие участники участвуют в соревновании. Собачка-«варежка» первой успевает отыскать палку и устремляется к финишу, но на полосе препятствий цепляется петелькой за гвоздь и в итоге призёром становится другой пёс, а вязаный щенок теряет свою форму и снова превращается в варежку. Видя горе девочки от потери друга, занятая мама оставляет книгу и сама берёт у соседей щенка для своей дочери.

Интересные факты:

Бульдогу из мультфильма художниками было придано портретное сходство с режиссёром фильма Романом Качановым.
В фильме не произносится ни одного слова.
-Дополнительная информация:-Качество: BDRip 1080p
Формат: MKV
Видео: MPEG-4 AVC, 1424x1072, 25.000 fps, 7000 kbps
Аудио 1: AC3, 48 kHz, 6 ch, 448 kbps
Аудио 2: LPCM, 48 kHz, 1 ch, 768 kbps
Субтитры: отсутствуют

Подробные технические данные (все 5 серий)

ОбщееУникальный идентификатор : 173402889423348600679670767315213766963 (0x82742E8518566B5ABD6F073AF37E5133)Полное имя : F:\HD-Мультфильмы\Чебурашка и крокодил Гена. Крокодил Гена.1969.BluRay.1080p.AC3.x264.mkvФормат : MatroskaВерсия формата : Version 2Размер файла : 1,12 ГбайтПродолжительность : 19 м.Общий поток : 8221 Кбит/секНазвание фильма : Ripped by KomsДата кодирования : UTC 2011-11-11 14:24:25Программа кодирования : mkvmerge v5.0.0 ('Die Wahre Liebe') built on Sep 25 2011 20:33:49Библиотека кодирования : libebml v1.2.2 + libmatroska v1.3.0
ВидеоИдентификатор : 1Формат : AVCФормат/Информация : Advanced Video CodecПрофиль формата : High@L4.1Параметр CABAC формата : ДаПараметр ReFrames формата : 4 кадраИдентификатор кодека : V_MPEG4/ISO/AVCПродолжительность : 19 м.Номинальный битрейт : 7000 Кбит/секШирина : 1424 пикселяВысота : 1072 пикселяСоотношение сторон : 4:3Частота кадров : 25,000 кадров/секЦветовое пространство : YUVСубдискретизация насыщенности : 4:2:0Битовая глубина : 8 битТип развёртки : ПрогрессивнаяБит/(Пиксели*Кадры) : 0.183Заголовок : Крокодил Гена.1969.BluRay.1080p.AC3.x264Библиотека кодирования : x264 core 98 r1649 20cbe10Настройки программы : cabac=1 / ref=4 / deblock=1:-3:-3 / analyse=0x3:0x133 / me=hex / subme=6 / psy=1 / psy_rd=1.00:0.00 / mixed_ref=1 / me_range=16 / chroma_me=1 / trellis=2 / 8x8dct=1 / cqm=0 / deadzone=21,11 / fast_pskip=0 / chroma_qp_offset=-2 / threads=3 / sliced_threads=0 / nr=0 / decimate=1 / interlaced=0 / constrained_intra=0 / bframes=3 / b_pyramid=2 / b_adapt=2 / b_bias=0 / direct=1 / weightb=1 / weightp=2 / keyint=250 / keyint_min=25 / scenecut=40 / intra_refresh=0 / rc_lookahead=40 / rc=2pass / mbtree=1 / bitrate=7000 / ratetol=1.0 / qcomp=0.60 / qpmin=10 / qpmax=51 / qpstep=4 / cplxblur=20.0 / qblur=0.5 / ip_ratio=1.40 / aq=1:1.00Язык : Russian
Аудио #1Идентификатор : 2Формат : AC-3Формат/Информация : Audio Coding 3Расширение режима : CM (complete main)Идентификатор кодека : A_AC3Продолжительность : 19 м.Вид битрейта : ПостоянныйБитрейт : 448 Кбит/секКаналы : 6 каналовРасположение каналов : Front: L C R, Side: L R, LFEЧастота : 48,0 КГцБитовая глубина : 16 битМетод сжатия : С потерямиРазмер потока : 62,5 Мбайт (5%)Заголовок : Русский AC3 5.1 ОригинальныйЯзык : Russian
Аудио #2Идентификатор : 3Формат : PCMИдентификатор кодека : A_PCM/INT/LITПродолжительность : 19 м.Вид битрейта : ПостоянныйЧастота : 48,0 КГцБитовая глубина : 16 битЗаголовок : Русский LPCM 1.0 ОригинальныйЯзык : Russian-ОбщееУникальный идентификатор : 172929439368917558994318223506605559767 (0x8218FFA14760E2D0BB035AF0066F4FD7)Полное имя : J:\Video\Чебурашка и крокодил Гена. Чебурашка.1972.BluRay.1080p.AC3.x264.mkvФормат : MatroskaВерсия формата : Version 2Размер файла : 1,09 ГбайтПродолжительность : 19 м.Общий поток : 8213 Кбит/секНазвание фильма : Ripped by KomsДата кодирования : UTC 2011-11-12 02:58:42Программа кодирования : mkvmerge v5.0.0 ('Die Wahre Liebe') built on Sep 25 2011 20:33:49Библиотека кодирования : libebml v1.2.2 + libmatroska v1.3.0
ВидеоИдентификатор : 1Формат : AVCФормат/Информация : Advanced Video CodecПрофиль формата : High@L4.1Параметр CABAC формата : ДаПараметр ReFrames формата : 4 кадраИдентификатор кодека : V_MPEG4/ISO/AVCПродолжительность : 19 м.Номинальный битрейт : 7000 Кбит/секШирина : 1424 пикселяВысота : 1072 пикселяСоотношение сторон : 4:3Частота кадров : 25,000 кадров/секЦветовое пространство : YUVСубдискретизация насыщенности : 4:2:0Битовая глубина : 8 битТип развёртки : ПрогрессивнаяБит/(Пиксели*Кадры) : 0.183Заголовок : Чебурашка.1972.BluRay.1080p.AC3.x264Библиотека кодирования : x264 core 98 r1649 20cbe10Настройки программы : cabac=1 / ref=4 / deblock=1:-3:-3 / analyse=0x3:0x133 / me=hex / subme=6 / psy=1 / psy_rd=1.00:0.00 / mixed_ref=1 / me_range=16 / chroma_me=1 / trellis=2 / 8x8dct=1 / cqm=0 / deadzone=21,11 / fast_pskip=0 / chroma_qp_offset=-2 / threads=3 / sliced_threads=0 / nr=0 / decimate=1 / interlaced=0 / constrained_intra=0 / bframes=3 / b_pyramid=2 / b_adapt=2 / b_bias=0 / direct=1 / weightb=1 / weightp=2 / keyint=250 / keyint_min=25 / scenecut=40 / intra_refresh=0 / rc_lookahead=40 / rc=2pass / mbtree=1 / bitrate=7000 / ratetol=1.0 / qcomp=0.60 / qpmin=10 / qpmax=51 / qpstep=4 / cplxblur=20.0 / qblur=0.5 / ip_ratio=1.40 / aq=1:1.00Язык : Russian
Аудио #1Идентификатор : 2Формат : AC-3Формат/Информация : Audio Coding 3Расширение режима : CM (complete main)Идентификатор кодека : A_AC3Продолжительность : 19 м.Вид битрейта : ПостоянныйБитрейт : 448 Кбит/секКаналы : 6 каналовРасположение каналов : Front: L C R, Side: L R, LFEЧастота : 48,0 КГцБитовая глубина : 16 битМетод сжатия : С потерямиРазмер потока : 60,9 Мбайт (5%)Заголовок : Русский AC3 5.1 ОригинальныйЯзык : Russian
Аудио #2Идентификатор : 3Формат : PCMИдентификатор кодека : A_PCM/INT/LITПродолжительность : 19 м.Вид битрейта : ПостоянныйЧастота : 48,0 КГцБитовая глубина : 16 битЗаголовок : Русский LPCM 1.0 ОригинальныйЯзык : Russian-ОбщееУникальный идентификатор : 246140950183625596320559561171789655147 (0xB92D05CC618BB0C5867268F8BD1FAC6B)Полное имя : J:\Video\Чебурашка и крокодил Гена. Шапокляк.1974.BluRay.1080p.AC3.x264.mkvФормат : MatroskaВерсия формата : Version 2Размер файла : 1,08 ГбайтПродолжительность : 18 м.Общий поток : 8223 Кбит/секНазвание фильма : Ripped by KomsДата кодирования : UTC 2011-11-12 03:10:14Программа кодирования : mkvmerge v5.0.0 ('Die Wahre Liebe') built on Sep 25 2011 20:33:49Библиотека кодирования : libebml v1.2.2 + libmatroska v1.3.0
ВидеоИдентификатор : 1Формат : AVCФормат/Информация : Advanced Video CodecПрофиль формата : High@L4.1Параметр CABAC формата : ДаПараметр ReFrames формата : 4 кадраИдентификатор кодека : V_MPEG4/ISO/AVCПродолжительность : 18 м.Номинальный битрейт : 7000 Кбит/секШирина : 1424 пикселяВысота : 1072 пикселяСоотношение сторон : 4:3Частота кадров : 25,000 кадров/секЦветовое пространство : YUVСубдискретизация насыщенности : 4:2:0Битовая глубина : 8 битТип развёртки : ПрогрессивнаяБит/(Пиксели*Кадры) : 0.183Заголовок : Шапокляк.1974.BluRay.1080p.AC3.x264Библиотека кодирования : x264 core 98 r1649 20cbe10Настройки программы : cabac=1 / ref=4 / deblock=1:-3:-3 / analyse=0x3:0x133 / me=hex / subme=6 / psy=1 / psy_rd=1.00:0.00 / mixed_ref=1 / me_range=16 / chroma_me=1 / trellis=2 / 8x8dct=1 / cqm=0 / deadzone=21,11 / fast_pskip=0 / chroma_qp_offset=-2 / threads=3 / sliced_threads=0 / nr=0 / decimate=1 / interlaced=0 / constrained_intra=0 / bframes=3 / b_pyramid=2 / b_adapt=2 / b_bias=0 / direct=1 / weightb=1 / weightp=2 / keyint=250 / keyint_min=25 / scenecut=40 / intra_refresh=0 / rc_lookahead=40 / rc=2pass / mbtree=1 / bitrate=7000 / ratetol=1.0 / qcomp=0.60 / qpmin=10 / qpmax=51 / qpstep=4 / cplxblur=20.0 / qblur=0.5 / ip_ratio=1.40 / aq=1:1.00Язык : Russian
Аудио #1Идентификатор : 2Формат : AC-3Формат/Информация : Audio Coding 3Расширение режима : CM (complete main)Идентификатор кодека : A_AC3Продолжительность : 18 м.Вид битрейта : ПостоянныйБитрейт : 448 Кбит/секКаналы : 6 каналовРасположение каналов : Front: L C R, Side: L R, LFEЧастота : 48,0 КГцБитовая глубина : 16 битМетод сжатия : С потерямиРазмер потока : 60,4 Мбайт (5%)Заголовок : Русский AC3 5.1 ОригинальныйЯзык : Russian
Аудио #2Идентификатор : 3Формат : PCMИдентификатор кодека : A_PCM/INT/LITПродолжительность : 18 м.Вид битрейта : ПостоянныйЧастота : 48,0 КГцБитовая глубина : 16 битЗаголовок : Русский LPCM 1.0 ОригинальныйЯзык : Russian-ОбщееУникальный идентификатор : 222418323145522964884094184377223714480 (0xA75435FBBFC2F072BE512175F59F96B0)Полное имя : J:\Video\Чебурашка и крокодил Гена. Чебурашка идёт в школу.1983.BluRay.1080p.AC3.x264.mkvФормат : MatroskaВерсия формата : Version 2Размер файла : 550 МбайтПродолжительность : 9 м. 21 с.Общий поток : 8205 Кбит/секНазвание фильма : Ripped by KomsДата кодирования : UTC 2011-11-12 03:15:25Программа кодирования : mkvmerge v5.0.0 ('Die Wahre Liebe') built on Sep 25 2011 20:33:49Библиотека кодирования : libebml v1.2.2 + libmatroska v1.3.0
ВидеоИдентификатор : 1Формат : AVCФормат/Информация : Advanced Video CodecПрофиль формата : High@L4.1Параметр CABAC формата : ДаПараметр ReFrames формата : 4 кадраИдентификатор кодека : V_MPEG4/ISO/AVCПродолжительность : 9 м. 21 с.Номинальный битрейт : 7000 Кбит/секШирина : 1424 пикселяВысота : 1072 пикселяСоотношение сторон : 4:3Частота кадров : 25,000 кадров/секЦветовое пространство : YUVСубдискретизация насыщенности : 4:2:0Битовая глубина : 8 битТип развёртки : ПрогрессивнаяБит/(Пиксели*Кадры) : 0.183Заголовок : Чебурашка идёт в школу.1983.BluRay.1080p.AC3.x264Библиотека кодирования : x264 core 98 r1649 20cbe10Настройки программы : cabac=1 / ref=4 / deblock=1:-3:-3 / analyse=0x3:0x133 / me=hex / subme=6 / psy=1 / psy_rd=1.00:0.00 / mixed_ref=1 / me_range=16 / chroma_me=1 / trellis=2 / 8x8dct=1 / cqm=0 / deadzone=21,11 / fast_pskip=0 / chroma_qp_offset=-2 / threads=3 / sliced_threads=0 / nr=0 / decimate=1 / interlaced=0 / constrained_intra=0 / bframes=3 / b_pyramid=2 / b_adapt=2 / b_bias=0 / direct=1 / weightb=1 / weightp=2 / keyint=250 / keyint_min=25 / scenecut=40 / intra_refresh=0 / rc_lookahead=40 / rc=2pass / mbtree=1 / bitrate=7000 / ratetol=1.0 / qcomp=0.60 / qpmin=10 / qpmax=51 / qpstep=4 / cplxblur=20.0 / qblur=0.5 / ip_ratio=1.40 / aq=1:1.00Язык : Russian
Аудио #1Идентификатор : 2Формат : AC-3Формат/Информация : Audio Coding 3Расширение режима : CM (complete main)Идентификатор кодека : A_AC3Продолжительность : 9 м. 21 с.Вид битрейта : ПостоянныйБитрейт : 448 Кбит/секКаналы : 6 каналовРасположение каналов : Front: L C R, Side: L R, LFEЧастота : 48,0 КГцБитовая глубина : 16 битМетод сжатия : С потерямиРазмер потока : 30,0 Мбайт (5%)Заголовок : Русский AC3 5.1 ОригинальныйЯзык : Russian
Аудио #2Идентификатор : 3Формат : PCMИдентификатор кодека : A_PCM/INT/LITПродолжительность : 9 м. 21 с.Вид битрейта : ПостоянныйЧастота : 48,0 КГцБитовая глубина : 16 битЗаголовок : Русский LPCM 1.0 ОригинальныйЯзык : Russian-ОбщееУникальный идентификатор : 185011703026624179453614419247982302279 (0x8B2FF5386AC1D53FB37D63FA98F9D447)Полное имя : J:\Video\Чебурашка и крокодил Гена. Варежка.1967.BluRay.1080p.AC3.x264.mkvФормат : MatroskaВерсия формата : Version 2Размер файла : 581 МбайтПродолжительность : 9 м. 53 с.Общий поток : 8216 Кбит/секНазвание фильма : Ripped by KomsДата кодирования : UTC 2011-11-12 03:17:47Программа кодирования : mkvmerge v5.0.0 ('Die Wahre Liebe') built on Sep 25 2011 20:33:49Библиотека кодирования : libebml v1.2.2 + libmatroska v1.3.0
ВидеоИдентификатор : 1Формат : AVCФормат/Информация : Advanced Video CodecПрофиль формата : High@L4.1Параметр CABAC формата : ДаПараметр ReFrames формата : 4 кадраИдентификатор кодека : V_MPEG4/ISO/AVCПродолжительность : 9 м. 53 с.Номинальный битрейт : 7000 Кбит/секШирина : 1424 пикселяВысота : 1072 пикселяСоотношение сторон : 4:3Частота кадров : 25,000 кадров/секЦветовое пространство : YUVСубдискретизация насыщенности : 4:2:0Битовая глубина : 8 битТип развёртки : ПрогрессивнаяБит/(Пиксели*Кадры) : 0.183Заголовок : Варежка.1967.BluRay.1080p.AC3.x264Библиотека кодирования : x264 core 98 r1649 20cbe10Настройки программы : cabac=1 / ref=4 / deblock=1:-3:-3 / analyse=0x3:0x133 / me=hex / subme=6 / psy=1 / psy_rd=1.00:0.00 / mixed_ref=1 / me_range=16 / chroma_me=1 / trellis=2 / 8x8dct=1 / cqm=0 / deadzone=21,11 / fast_pskip=0 / chroma_qp_offset=-2 / threads=3 / sliced_threads=0 / nr=0 / decimate=1 / interlaced=0 / constrained_intra=0 / bframes=3 / b_pyramid=2 / b_adapt=2 / b_bias=0 / direct=1 / weightb=1 / weightp=2 / keyint=250 / keyint_min=25 / scenecut=40 / intra_refresh=0 / rc_lookahead=40 / rc=2pass / mbtree=1 / bitrate=7000 / ratetol=1.0 / qcomp=0.60 / qpmin=10 / qpmax=51 / qpstep=4 / cplxblur=20.0 / qblur=0.5 / ip_ratio=1.40 / aq=1:1.00Язык : Russian
Аудио #1Идентификатор : 2Формат : AC-3Формат/Информация : Audio Coding 3Расширение режима : CM (complete main)Идентификатор кодека : A_AC3Продолжительность : 9 м. 53 с.Вид битрейта : ПостоянныйБитрейт : 448 Кбит/секКаналы : 6 каналовРасположение каналов : Front: L C R, Side: L R, LFEЧастота : 48,0 КГцБитовая глубина : 16 битМетод сжатия : С потерямиРазмер потока : 31,7 Мбайт (5%)Заголовок : Русский AC3 5.1 ОригинальныйЯзык : Russian
Аудио #2Идентификатор : 3Формат : PCMИдентификатор кодека : A_PCM/INT/LITПродолжительность : 9 м. 53 с.Вид битрейта : ПостоянныйЧастота : 48,0 КГцБитовая глубина : 16 битЗаголовок : Русский LPCM 1.0 ОригинальныйЯзык : Russian

Скриншоты

1. Крокодил Гена (1969)

2. Чебурашка (1972)

3. Шапокляк (1974)

4. Чебурашка идёт в школу (1983)

5. Варежка (1967)


Смотреть онлайн

[trackeroc.ru].7103.torrent 
 ЗОЛОТАЯ РАЗДАЧА! СКАЧАННОЕ НЕ ЗАСЧИТЫВАЕТСЯ! 
Торрент: Зарегистрирован   [ 2015-07-19 19:16 ]

Скачать торрент

23 KB

Статус: проверено
Скачан: 26 раз
Размер: 4.4 GB
 

Admin (19-июл-15)
Похожие торренты
Форум Тема Автор Размер
Зарубежные Чебурашка / Cheburashka (2013) WEBRip [H.264/720p-LQ] BiOS 1.99 GB
Зарубежные Мультсериалы Чебурашка Арэрэ! / Cheburashka Arere? (2010) HDTVRip 720p BiOS 915 MB

_________________
[Профиль] [ЛС]
Показать сообщения:    
Ответить на тему

Текущее время: Сегодня 18:25

Часовой пояс: GMT + 4



Вы не можете начинать темы
Вы не можете отвечать на сообщения
Вы не можете редактировать свои сообщения
Вы не можете удалять свои сообщения
Вы не можете голосовать в опросах
Вы не можете прикреплять файлы к сообщениям
Вы можете скачивать файлы