Чернобыль: Зона отчуждения (2014) WEB-DLRip (Сезон 1, серии 1-8 из 8)

Ответить на тему

Статистика раздачи [Обновить пиров]
Размер:  5.18 GB   |    Зарегистрирован:  5 месяцев 18 дней   |    Скачан:  1 раз

Полного источника не было: 2 месяца 27 дней

 
 
 
 
Автор Сообщение

Angel ®

Стаж: 1 год 3 месяца

Сообщений: 31


Пост 16-Авг-2015 12:09

[Цитировать]

Чернобыль. Зона отчуждения
«Никто не вернется прежним»
- Производство: "СинеЛаб Продакшн", Россия
Год выпуска: 2014
Жанр: Триллер
Режиссер: Андерс Банке
Актеры: Кристина Казинская, Анвар Халилулаев, Сергей Романович, Евгений Стычкин, Валерия Дмитриева, Константин Давыдов, Илья Щербинин, Николай Иванов, Дарья Лузина, Евгения Каверау
Описание фильма:
Пятеро молодых людей прыгают в старую «Волгу» и отправляются на поиски вора, часом ранее укравшего из квартиры родителей главного героя восемь миллионов рублей. Грабитель — обычный московский айтишник, — вместо того чтобы залечь на дно, тут же записывает видеоотчет, в котором сообщает, что финальная точка его путешествия — Чернобыльская АЭС и город Припять.
Дата российской премьеры: 13.10.2014
Продолжительность: ~ 00:54:00 серия
Качество видео: WEB-DLRip
Видеокодек: Xvid
Битрейт видео: ~1800 Kbps
Размер кадра: 720x400 (16:9)
Аудиокодек: AC3
Битрейт аудио: 2 ch, 192 Kbps

MediaInfo

Код:
Общее
Полное имя : С:\Чернобыль. Зона отчуждения - 01 серия.avi
Формат : AVI
Формат/Информация : Audio Video Interleave
Размер файла : 768 Мбайт
Продолжительность : 53 м.
Общий поток : 2002 Кбит/сек
Программа кодирования : VirtualDubMod 1.5.10.3 | www.virtualdub-fr.org || (build 2550/release)
Библиотека кодирования : VirtualDubMod build 2550/release
Видео
Идентификатор : 0
Формат : MPEG-4 Visual
Профиль формата : Advanced Simple@L5
Параметр BVOP формата : 1
Параметр QPel формата : Нет
Параметр GMC формата : Без точки перехода
Параметр матрицы формата : Default (MPEG)
Идентификатор кодека : XVID
Идентификатор кодека/Подсказка : XviD
Продолжительность : 53 м.
Битрейт : 1800 Кбит/сек
Ширина : 720 пикселей
Высота : 400 пикселей
Соотношение сторон : 16:9
Частота кадров : 25,000 кадров/сек
Цветовое пространство : YUV
Субдискретизация насыщенности : 4:2:0
Битовая глубина : 8 бит
Тип развёртки : Прогрессивная
Метод сжатия : С потерями
Бит/(Пиксели*Кадры) : 0.250
Размер потока : 690 Мбайт (90%)
Библиотека кодирования : XviD 73
Аудио
Идентификатор : 1
Формат : AC-3
Формат/Информация : Audio Coding 3
Расширение режима : CM (complete main)
Параметр Endianness формата : Big
Идентификатор кодека : 2000
Продолжительность : 53 м.
Вид битрейта : Постоянный
Битрейт : 192 Кбит/сек
Каналы : 2 канала
Расположение каналов : Front: L R
Частота : 48,0 КГц
Битовая глубина : 16 бит
Метод сжатия : С потерями
Размер потока : 73,6 Мбайт (10%)
Выравнивание : Разделение по промежуткам
Продолжительность промежутка : 40 мс. (1,00 видеокадр)
Время предзагрузки промежутка : 500 мс.
-Скриншоты:


Смотреть онлайн

[trackeroc.ru].7563.torrent 
Торрент: Зарегистрирован   [ 2016-06-16 22:12 ]

Скачать торрент

27 KB

Статус: проверено
Скачан: 15 раз
Размер: 5.18 GB
 

BiOS (16-авг-15), Admin (16-авг-15)
Похожие торренты
Форум Тема Автор Размер
Зарубежные сериалы Слепое пятно / Слепая зона / Blindspot (2016) WEB-DLRip (сезон 2, серии 1-5 из 13) Admin 2.69 GB
Зарубежные сериалы Слепое пятно / Слепая зона / Blindspot (2015) WEB-DLRip (сезон 1, серии 23 из 23) AlexFilm Admin 11.7 GB
Боевики Запретная Зона 3D / Bunker of the Dead (2015) HDRip [Line] Admin 1.37 GB
Ужасы мистика триллеры Зона 51 / Area 51 (2015) WEB-DLRip Admin 1.45 GB
[Профиль] [ЛС]
Показать сообщения:    
Ответить на тему

Текущее время: Сегодня 22:17

Часовой пояс: GMT + 4



Вы не можете начинать темы
Вы не можете отвечать на сообщения
Вы не можете редактировать свои сообщения
Вы не можете удалять свои сообщения
Вы не можете голосовать в опросах
Вы не можете прикреплять файлы к сообщениям
Вы можете скачивать файлы