Черри 2000 / Cherry 2000 (1987) HDTVRip [H.264/720р]

Ответить на тему

Статистика раздачи [Обновить пиров]
Размер:  3.44 GB   |    Зарегистрирован:  1 год 1 месяц   |    Скачан:  1 раз

Полного источника не было: 1 месяц 7 дней

 
 
 
 
Автор Сообщение

BiOS ®

Стаж: 2 года 7 месяцев

Сообщений: 1732

Откуда: Raccoon City


Пост 22-Окт-2015 16:25

[Цитировать]

Черри 2000 / Cherry 2000 - Производство: США | ERP Productions (I), Orion Pictures
Жанр: Фантастика, Боевик, Приключения
Режиссер: Стив Де Джарнатт
Актеры: Мелани Гриффит, Лоуренс Фишборн, Слай Смит, Фрэнсис МакКэффри, Аннабел Брукс, Джоан Ридделл, Кэти Грин, Роберт З`Дар, Тим Томерсон, Ховард Суэйн, Камерон Милцер, Дженнифер Майо, Джефф Ливайн, Бен Джонсон, Брайон Джеймс, Майкл С. Гвин, Памела Гидли, Гарри Кэри мл., Маршалл Белл, Дженнифер Бэлгобин, Дэвид Эндрюс
Описание:
Сэм Тредвелл женат на очаровательной Черри 2000, которая является... роботом-андроидом, что для 2017-го года, к которому относится время действия фильма, видимо, вполне обыкновенно. Однажды, во время любовных игрищ на кухне, бедняжка Черри слегка промокает, в результате чего весь её тонкий механизм выходит из строя без возможности восстановления и отправляется на свалку, а Сэму остаётся только маленький чип, на котором хранится вся основная память его перегоревшей подруги. Пребывающий в расстроенных чувствах Сэм решает нанять человека, который мог бы отправиться на заброшенный склад роботов, дабы разыскать там недостающую запчасть для своей супружницы, а именно её тело. Однако путешествие на склад - в 7-ю зону, которая контролируется шайкой развесёлых душегубов во главе с Лестером оборачивается не увеселительной прогулкой...
Продолжительность: 01:34:19
Качество видео: HDTVRip
Перевод: Многоголосый закадровый
Субтитры: Отсутствуют
Видео: AVC/H.264, ~5000 Kbps, 1280x720
Аудио: AC3 5.1, 256 Kbps

Media Info

Код:
General
Unique ID                      : 203627104597378982309131778287876136198 (0x99312760F6AB6266A450AEC55D6B5D06)
Complete name                  : Cherry 2000 ©1987.mkv
Format                         : Matroska
Format version                 : Version 4 / Version 2
File size                      : 3.44 GiB
Duration                       : 1h 34mn
Overall bit rate               : 5 222 Kbps
Movie name                     : Cherry 2000 (rip by smithland)
Encoded date                   : UTC 2013-02-10 00:05:22
Writing application            : mkvmerge v6.0.0 ('Coming Up For Air')
Writing library                : libebml v1.3.0 + libmatroska v1.4.0
Attachment                     : Yes / Yes
Video
ID                             : 1
Format                         : AVC
Format/Info                    : Advanced Video Codec
Format profile                 : High@L4.0
Format settings, CABAC         : Yes
Format settings, ReFrames      : 10 frames
Codec ID                       : V_MPEG4/ISO/AVC
Duration                       : 1h 34mn
Bit rate                       : 5 000 Kbps
Width                          : 1 280 pixels
Height                         : 720 pixels
Display aspect ratio           : 16:9
Frame rate mode                : Constant
Frame rate                     : 25.000 fps
Color space                    : YUV
Chroma subsampling             : 4:2:0
Bit depth                      : 8 bits
Scan type                      : Progressive
Bits/(Pixel*Frame)             : 0.217
Stream size                    : 3.20 GiB (93%)
Writing library                : x264 core 129 r2230
Encoding settings              : cabac=1 / ref=10 / deblock=1:-1:1 / analyse=0x3:0x133 / me=esa / subme=11 / psy=1 / psy_rd=1.50:0.50 / mixed_ref=0 / me_range=32 / chroma_me=1 / trellis=2 / 8x8dct=1 / cqm=0 / deadzone=21,11 / fast_pskip=1 / chroma_qp_offset=-4 / threads=12 / lookahead_threads=2 / sliced_threads=0 / nr=0 / decimate=1 / interlaced=0 / bluray_compat=0 / constrained_intra=0 / bframes=6 / b_pyramid=2 / b_adapt=1 / b_bias=0 / direct=3 / weightb=1 / open_gop=0 / weightp=2 / keyint=250 / keyint_min=25 / scenecut=80 / intra_refresh=0 / rc_lookahead=40 / rc=abr / mbtree=1 / bitrate=5000 / ratetol=1.0 / qcomp=0.60 / qpmin=10 / qpmax=69 / qpstep=4 / vbv_maxrate=24000 / vbv_bufsize=24000 / nal_hrd=none / ip_ratio=1.40 / aq=1:1.00
Language                       : Russian
Default                        : Yes
Forced                         : Yes
Audio
ID                             : 2
Format                         : AC-3
Format/Info                    : Audio Coding 3
Mode extension                 : CM (complete main)
Format settings, Endianness    : Big
Codec ID                       : A_AC3
Duration                       : 1h 34mn
Bit rate mode                  : Constant
Bit rate                       : 256 Kbps
Channel(s)                     : 6 channels
Channel positions              : Front: L C R, Side: L R, LFE
Sampling rate                  : 48.0 KHz
Bit depth                      : 16 bits
Compression mode               : Lossy
Stream size                    : 173 MiB (5%)
Title                          : MVO
Language                       : Russian
Default                        : Yes
Forced                         : Yes
Menu
00:00:00.000                   : : 01
00:05:00.000                   : : 02
00:10:00.000                   : : 03
00:15:00.000                   : : 04
00:20:00.000                   : : 05
00:25:00.000                   : : 06
00:30:00.000                   : : 07
00:35:00.000                   : : 08
00:40:00.000                   : : 09
00:45:00.000                   : : 10
00:50:00.000                   : : 11
00:55:00.000                   : : 12
01:00:00.000                   : : 13
01:05:00.000                   : : 14
01:10:00.000                   : : 15
01:15:00.000                   : : 16
01:20:00.000                   : : 17
01:25:00.000                   : : 18
01:30:00.000                   : : 19
Скриншоты:


Смотреть онлайн

[trackeroc.ru].9088.torrent 
Торрент: Зарегистрирован   [ 2015-10-22 16:25 ]

Скачать торрент

276 KB

Статус: проверено
Скачан: 12 раз
Размер: 3.44 GB
 

Admin (22-окт-15), Angel (23-окт-15)
Похожие торренты
Форум Тема Автор Размер
Зарубежные сериалы Китайский городовой / Martial Law (1998-2000) SATRip (сезон 2, серии 01-22 из 22) (ОРТ) BiOS 8.26 GB
Старые игры для PC до 2005 года Devil Inside / Дьявол Шоу (2000) [RUS] BiOS 638 MB
Старые игры для PC до 2005 года Resident Evil: Code Veronica (2000) [Ru/En] (1.0.4) Repack West4it BiOS 2.97 GB
Старые игры для PC до 2005 года Aliens versus Predator Classic 2000 [GOG] [Multi5 / ENG] Admin 475 MB
RPG (Linux) Jagged Alliance 2 [En] (P) 2000 BiOS 1.17 GB

_________________
[Профиль] [ЛС]
Показать сообщения:    
Ответить на тему

Текущее время: Сегодня 12:03

Часовой пояс: GMT + 4



Вы не можете начинать темы
Вы не можете отвечать на сообщения
Вы не можете редактировать свои сообщения
Вы не можете удалять свои сообщения
Вы не можете голосовать в опросах
Вы не можете прикреплять файлы к сообщениям
Вы можете скачивать файлы