Чужак / The Outsider (2020) WEBRip [H.264/720p-LQ] (сезон 1, серии 1-10 из 10) HDRezka Studio скачать торрент

Reply to topic

DL-List and Torrent activity [Update пиров]
Size:  9.01 GB   |    Registered:  17 days   |    Completed:  0 times
Seeders:  10  [  458 KB/s  ]   Leechers:  9  [  25 MB/s  ]   Show peers in full details
 
 
 
 
Author Message

BiOS ®

Longevity: 5 years 11 months

Posts: 2425

Location: Earth


Post 16-Jan-2020 13:59

[Quote]

Чужак / The Outsider - Производство: США / Aggregate Films, Media Rights Capital
Жанр: триллер, детектив, криминал
Режиссер: Эндрю Бернштейн, Джейсон Бейтман, Шарлотта Брандстром
Актеры: Юл Васкес, Джейсон Бейтман, Джереми Бобб, Синтиа Эриво, Джон Геттье, Марк Менчака, Бен Мендельсон, Джулианна Николсон, Дерек Сесил, Билл Кэмп и др.
Описание:
Экранизаций Стивена Кинга много не бывает. «Чужак» — сериал из вселенной «Мистера Мерседеса», мрачная, как и полагается, история убийства 11-летнего мальчика, которое расследует детектив Ральф Андерсон в исполнении Бена Мендельсона («Темный рыцарь: Возрождение легенды»). Все улики указывают на тренера детской бейсбольной команды Терри Мейтленда (Джейсон Бейтман из «Озарка»), однако после ареста выясняется, что у него есть железное алиби. Напряженный сюжет, уникальный почерк Кинга и отличный каст —зрителей ждет увлекательный и атмосферный триллер.

Дата мировой премьеры: 12 января 2020
Продолжительность: ~00:55:00 серия
Качество видео: WEBRip
Перевод: Многоголосый профессиональный (HDRezka Studio)
Субтитры: русские (на надписи)
Реклама: Без рекламы
Видео: AVC/H.264, 1280x720 (16:9), ~1915 Kbps
Аудио: AC3, 2 ch, 192 Kbps - русский

MediaInfo:

Общее
Уникальный идентификатор : 82332318037793454609584235790818961725 (0x3DF0A0AEFAD4ADE83A4E4F9DFE79693D)
Полное имя : The.Outsider.S01E01.mkv
Формат : Matroska
Версия формата : Version 4
Размер файла : 914 Мбайт
Продолжительность : 59 м. 31 с.
Режим общего битрейта : Переменный
Общий поток : 2148 Кбит/сек
Программа кодирования : Lavf58.20.100
Библиотека кодирования : Lavf58.20.100
ErrorDetectionType : Per level 1
Видео
Идентификатор : 1
Формат : AVC
Формат/Информация : Advanced Video Codec
Профиль формата : High@L4.1
Настройки формата : CABAC / 1 Ref Frames
Параметр CABAC формата : Да
Параметр RefFrames формата : 1 кадр
Идентификатор кодека : V_MPEG4/ISO/AVC
Продолжительность : 59 м. 31 с.
Вид битрейта : Переменный
Битрейт : 1913 Кбит/сек
Максимальный битрейт : 2000 Кбит/сек
Ширина : 1280 пикселей
Высота : 720 пикселей
Соотношение сторон : 16:9
Режим частоты кадров : Постоянный
Частота кадров : 23,976 (24000/1001) кадра/сек
Цветовое пространство : YUV
Субдискретизация насыщенности : 4:2:0
Битовая глубина : 8 бит
Тип развёртки : Прогрессивная
Бит/(Пиксели*Кадры) : 0.087
Размер потока : 814 Мбайт (89%)
Default : Да
Forced : Нет
Аудио
Идентификатор : 2
Формат : AC-3
Формат/Информация : Audio Coding 3
Коммерческое название : Dolby Digital
Идентификатор кодека : A_AC3
Продолжительность : 59 м. 31 с.
Вид битрейта : Постоянный
Битрейт : 192 Кбит/сек
Каналы : 2 канала
ChannelLayout : L R
Частота : 48,0 КГц
Частота кадров : 31,250 кадров/сек (1536 SPF)
Метод сжатия : С потерями
Задержка видео : 14 мс.
Размер потока : 81,7 Мбайт (9%)
Язык : Russian
ServiceKind/String : Complete Main
Default : Да
Forced : Нет
-Скриншоты:


Смотреть онлайн


[trackeroc.org].29814.torrent 
Torrent: Registered   [ 2020-03-11 19:31 ]

Скачать торрент

47 KB

Status: checked
Completed: 67 times
Size: 9.01 GB
 

Admin (16-янв-20)

_________________
[Profile] [PM]
Display posts from previous:    
Reply to topic

The time now is: Today 13:07

All times are GMT + 4 Hours



You cannot post new topics in this forum
You cannot reply to topics in this forum
You cannot edit your posts in this forum
You cannot delete your posts in this forum
You cannot vote in polls in this forum
You cannot attach files in this forum
You can download files in this forum