Чужая милая [4 серии из 4] (Дмитрий Фикс) [2015, Драма, Мелодрама, SATRip]

Ответить на тему

Статистика раздачи [Обновить пиров]
Размер:  2.38 GB   |    Зарегистрирован:  1 год 1 месяц   |    Скачан:  3 раза
Сидов:  34  [  0 KB/s  ]   Личеров:  1  [  0 KB/s  ]   Подробная статистика пиров
   
 
Автор Сообщение

Матвей ®

Стаж: 1 год 2 месяца

Сообщений: 236

Откуда: Челябинск


Пост 12-Окт-2015 22:37

[Цитировать]

Чужая милая (4 серии из 4) -- Производство: Россия, Мотор Фильм Студия
Жанр: Драма, Мелодрама-Режиссер: Дмитрий Фикс
Актеры: Анастасия Заворотнюк, Александр Бухаров, Анна Уколова, Олеся Железняк, Олег Акулич, Егор Клейменов, Марк Муравьев, Алина Ольшанская, Михаил Петухов, Сергей Зарков, Юрий Коноплянников--Описание:
Главная героиня Наталья — повар в школьной столовой. Ей нравится эта работа, тем более, что и сын-хулиган всегда на виду. Но однажды Наталью несправедливо обвиняют в воровстве и увольняют с работы. Чтобы как-то прокормить себя и ребенка, она, по совету подруги, решает сдавать одну комнату в своей квартире. Вопреки подозрениям героини, жилец Николай оказывается порядочным мужчиной. Вскоре между героями возникает взаимная симпатия, но Ольга, подруга Натальи, тоже увлекается Николаем и всеми силами пытается разлучить влюбленных. В то же время неожиданно возвращается давно пропавший муж Натальи.-КиноПоиск
Продолжительность: 4 x ~ 00:43:00
Качество видео: SATRip
Видео: Xvid, 720x400, ~1800 Кбит/с
Аудио: MP3, 2 ch, 128 Кбит/с, CBR--

Mediainfo:

Код:
General
Complete name               : D:\Фильмы\Chuzhaja.milaja.2015\01.serija.avi
Format                      : AVI
Format/Info                 : Audio Video Interleave
File size                   : 583 MiB
Duration                    : 42mn 2s
Overall bit rate            : 1 938 Kbps
Writing application         : VirtualDubMod 1.5.10.3 | [url=http://www.virtualdub-fr.org]www.virtualdub-fr.org[/url] || (build 2550/release)
Writing library             : VirtualDubMod build 2550/release
Video
ID                          : 0
Format                      : MPEG-4 Visual
Format profile              : Advanced Simple@L5
Format settings, BVOP       : 2
Format settings, QPel       : No
Format settings, GMC        : No warppoints
Format settings, Matrix     : Default (H.263)
Codec ID                    : XVID
Codec ID/Hint               : XviD
Duration                    : 42mn 2s
Bit rate                    : 1 800 Kbps
Width                       : 720 pixels
Height                      : 400 pixels
Display aspect ratio        : 16:9
Frame rate                  : 25.000 fps
Color space                 : YUV
Chroma subsampling          : 4:2:0
Bit depth                   : 8 bits
Scan type                   : Progressive
Compression mode            : Lossy
Bits/(Pixel*Frame)          : 0.250
Stream size                 : 541 MiB (93%)
Writing library             : XviD 1.2.1 (UTC 2008-12-04)
Audio
ID                          : 1
Format                      : MPEG Audio
Format version              : Version 1
Format profile              : Layer 3
Mode                        : Joint stereo
Mode extension              : MS Stereo
Codec ID                    : 55
Codec ID/Hint               : MP3
Duration                    : 42mn 2s
Bit rate mode               : Constant
Bit rate                    : 128 Kbps
Channel(s)                  : 2 channels
Sampling rate               : 48.0 KHz
Compression mode            : Lossy
Stream size                 : 38.5 MiB (7%)
Alignment                   : Aligned on interleaves
Interleave, duration        : 40 ms (1.00 video frame)
Interleave, preload duratio : 504 ms
Writing library             : LAME3.99r
Encoding settings           : -m j -V 4 -q 9 -lowpass 17 -b 128
--

Скриншоты:



Смотреть онлайн

[trackeroc.ru].8651.torrent 
Торрент: Зарегистрирован   [ 2015-10-12 22:37 ]

Скачать торрент

25 KB

Статус: проверено
Скачан: 14 раз
Размер: 2.38 GB
 

Похожие торренты
Форум Тема Автор Размер
Российские сериалы Ищейка / Своя-чужая [серии 1-16 из 16] [2015, детектив, SATRip] Матвей 8.6 GB

_________________

[Профиль] [ЛС]
Показать сообщения:    
Ответить на тему

Текущее время: Сегодня 22:20

Часовой пояс: GMT + 4



Вы не можете начинать темы
Вы не можете отвечать на сообщения
Вы не можете редактировать свои сообщения
Вы не можете удалять свои сообщения
Вы не можете голосовать в опросах
Вы не можете прикреплять файлы к сообщениям
Вы можете скачивать файлы