Чужой: Изоляция / Alien: Isolation (2014) WEBRip [H.264/1080p-LQ]

Ответить на тему

Статистика раздачи [Обновить пиров]
Размер:  3.06 GB   |    Зарегистрирован:  10 месяцев 20 дней   |    Скачан:  2 раза

Полного источника не было: 16 дней

 
 
 
 
Автор Сообщение

BiOS ®

Стаж: 2 года 7 месяцев

Сообщений: 1738

Откуда: Raccoon City


Пост 20-Янв-2016 17:20

[Цитировать]

Чужой: Изоляция / Alien: Isolation - Производство: The Creative Assembly
Жанр: Триллер, Ужасы, Игровое видео
Описание:
Ощутите подлинный страх в мире Alien: Isolation - триллере с атмосферой ужаса и смертельной угрозы. Спустя 15 лет после событий Alien™ дочь Эллен Рипли, Аманда, начинает искать истинную причину исчезновения матери и вступает в схватку за выживание. В роли Аманды вы погрузитесь во взрывоопасный мир: вам будут угрожать отчаявшиеся, паникующие местные обитатели и непредсказуемый, безжалостный Чужой.
Продолжительность: 03:00:10
Качество видео: WEBRip
Перевод: Дублированный
Субтитры: отсутствуют
Видео: AVC/H.264, 1920х1080, ~2173 kbps
Аудио: AAC, 2 ch, 254 kbps, CBR

Mediainfo:

Код:
Формат : MPEG-4
Профиль формата : Base Media
Идентификатор кодека : isom
Размер файла : 3,06 Гбайт
Продолжительность : 3 ч. 0 м.
Общий поток : 2434 Кбит/сек
Программа кодирования : Lavf57.2.100
Видео
Идентификатор : 1
Формат : AVC
Формат/Информация : Advanced Video Codec
Профиль формата : High@L4
Параметр CABAC формата : Да
Параметр ReFrames формата : 3 кадра
Идентификатор кодека : avc1
Идентификатор кодека/Информация : Advanced Video Coding
Продолжительность : 3 ч. 0 м.
Битрейт : 2173 Кбит/сек
Ширина : 1920 пикселей
Высота : 1080 пикселей
Соотношение сторон : 16:9
Режим частоты кадров : Постоянный
Частота кадров : 30,000 кадров/сек
Цветовое пространство : YUV
Субдискретизация насыщенности : 4:2:0
Битовая глубина : 8 бит
Тип развёртки : Прогрессивная
Бит/(Пиксели*Кадры) : 0.035
Размер потока : 2,73 Гбайт (89%)
Аудио
Идентификатор : 2
Формат : AAC
Формат/Информация : Advanced Audio Codec
Профиль формата : LC
Идентификатор кодека : 40
Продолжительность : 3 ч. 0 м.
Вид битрейта : Постоянный
Битрейт : 254 Кбит/сек
Каналы : 2 канала
Расположение каналов : Front: L R
Частота : 44,1 КГц
Метод сжатия : С потерями
Размер потока : 327 Мбайт (10%)
-Скриншоты:


[trackeroc.ru].11113.torrent 
 СЕРЕБРЯНАЯ РАЗДАЧА! СКАЧАННОЕ ЗАСЧИТЫВАЕТСЯ ТОЛЬКО НАПОЛОВИНУ! 
Торрент: Зарегистрирован   [ 2016-01-20 17:20 ]

Скачать торрент

16 KB

Статус: проверено
Скачан: 53 раз
Размер: 3.06 GB
 

Похожие торренты
Форум Тема Автор Размер
Военные Свой среди чужих, чужой среди своих [1974] DVDRip-AVC BiOS 2.66 GB
Зарубежные сериалы Homeland / Родина / Чужой среди своих / Сезоны: 1-4 / Серии: 1-48 из 48 [2011-2014, BDrip] Admin 34.32 GB
Фантастика Фэнтези Чужой против Хищника / AVP: Alien vs. Predator (2004) [2-in-1: Theatrical & Unrated Edition] Blu-ray CEE [H.264/1080p] BiOS 36.96 GB

_________________
[Профиль] [ЛС]
Показать сообщения:    
Ответить на тему

Текущее время: Сегодня 01:06

Часовой пояс: GMT + 4



Вы не можете начинать темы
Вы не можете отвечать на сообщения
Вы не можете редактировать свои сообщения
Вы не можете удалять свои сообщения
Вы не можете голосовать в опросах
Вы не можете прикреплять файлы к сообщениям
Вы можете скачивать файлы