Чума / Девяностые (2015) SATRip (серии 1-24 из 24)

Ответить на тему

Статистика раздачи [Обновить пиров]
Скачали
Размер:  14.31 GB   |    Зарегистрирован:  1 год   |    Скачан:  3 раза

Полного источника не было: 1 день 15 часов

 
 
 
 
Автор Сообщение

BiOS ®

Стаж: 2 года 7 месяцев

Сообщений: 1730

Откуда: Raccoon City


Пост 05-Ноя-2015 02:47

[Цитировать]

Чума / Девяностые - Производство: Россия / ООО «Студия „КонтАкт продакшн“
Жанр: Драма
Режиссер: Алексей Козлов, Александр Устюгов
Актеры: Сергей Жарков, Александр Устюгов, Юрий Беляев, Екатерина Климова, Борис Щербаков, Павел Григорьев, Светлана Смирнова-Марцинкевич, Андрей Ургант, Сергей Селин, Аркадий Коваль, Ярослав Бойко, Наталья Данилова, Всеволод Цурило, Борис Смолкин, Гали Абайдулов и др.
Описание:
«Чума» – фильм о нас и о «девяностых». Рушится эпоха, на смену ей приходит другая. Мужчины – любят деньги, женщины – любят тех, у кого они есть! Героям фильма нужно вписаться в обстоятельства новой жизни, но далеко не у всех это получается. Жизнь людей происходит на разных полюсах криминальной эпохи: взлет олигархов и обнищание народа. Эта жизнь раздаёт дивиденды не по заслугам и справедливости, а по законам волчьей стаи, где выживает сильнейший.
Дата премьеры в России: 26 октября 2015 (НТВ)
Продолжительность: ~ 00:45:00 серия
Качество видео: SATRip
Видео: XviD, 720x400 (16:9), ~1800 kb/s
Аудио: MPEG Layer 3, 48,0 kHz, 2 ch, 128 kb/s, CBR

Mediainfo

Код:
Общее
Полное имя : D:\Чума (2015) SATRip\01.serija.avi
Формат : AVI
Формат/Информация : Audio Video Interleave
Размер файла : 626 Мбайт
Продолжительность : 45 м.
Общий поток : 1938 Кбит/сек
Программа кодирования : VirtualDubMod 1.5.10.3 | www.virtualdub-fr.org || (build 2550/release)
Библиотека кодирования : VirtualDubMod build 2550/release
Видео
Идентификатор : 0
Формат : MPEG-4 Visual
Профиль формата : Advanced Simple@L5
Параметр BVOP формата : 2
Параметр QPel формата : Нет
Параметр GMC формата : Без точки перехода
Параметр матрицы формата : Default (MPEG)
Идентификатор кодека : XVID
Идентификатор кодека/Подсказка : XviD
Продолжительность : 45 м.
Битрейт : 1800 Кбит/сек
Ширина : 720 пикселей
Высота : 400 пикселей
Соотношение сторон : 16:9
Частота кадров : 25,000 кадров/сек
Цветовое пространство : YUV
Субдискретизация насыщенности : 4:2:0
Битовая глубина : 8 бит
Тип развёртки : Прогрессивная
Метод сжатия : С потерями
Бит/(Пиксели*Кадры) : 0.250
Размер потока : 581 Мбайт (93%)
Библиотека кодирования : XviD 1.2.1 (UTC 2008-12-04)
Аудио
Идентификатор : 1
Формат : MPEG Audio
Версия формата : Version 1
Профиль формата : Layer 3
Режим : Joint stereo
Расширение режима : MS Stereo
Идентификатор кодека : 55
Идентификатор кодека/Подсказка : MP3
Продолжительность : 45 м.
Вид битрейта : Постоянный
Битрейт : 128 Кбит/сек
Каналы : 2 канала
Частота : 48,0 КГц
Метод сжатия : С потерями
Размер потока : 41,4 Мбайт (7%)
Выравнивание : Соединение по промежуткам
Продолжительность промежутка : 40 мс. (1,00 видеокадр)
Время предзагрузки промежутка : 504 мс.
Библиотека кодирования : LAME3.99r
Настройки программы : -m j -V 4 -q 9 -lowpass 17 -b 128
-Скриншоты:


Смотреть онлайн

[trackeroc.ru].9527.torrent 
Торрент: Зарегистрирован   [ 2015-11-13 00:53 ]

Скачать торрент

73 KB

Статус: проверено
Скачан: 21 раз
Размер: 14.31 GB
 

Admin (05-ноя-15)

_________________
[Профиль] [ЛС]
Показать сообщения:    
Ответить на тему

Текущее время: Сегодня 14:13

Часовой пояс: GMT + 4



Вы не можете начинать темы
Вы не можете отвечать на сообщения
Вы не можете редактировать свои сообщения
Вы не можете удалять свои сообщения
Вы не можете голосовать в опросах
Вы не можете прикреплять файлы к сообщениям
Вы можете скачивать файлы