Дэдпул / Deadpool (2016) WEBRip [Line]

Ответить на тему

Статистика раздачи [Обновить пиров]
Размер:  739 MB   |    Зарегистрирован:  8 месяцев 7 дней   |    Скачан:  2 раза
DL-List: Нет

Полного источника не было: 1 день 7 часов

 
 
 
 
Автор Сообщение

BiOS ®

Стаж: 2 года 7 месяцев

Сообщений: 1732

Откуда: Raccoon City


Пост 28-Мар-2016 02:41

[Цитировать]

Дэдпул / Deadpool «Стань свидетелем, как он кончит»- Производство: США, Marvel Enterprises, TSG Entertainment, Twentieth Century Fox Film Corporation
Жанр: Фантастика, Боевик
Режиссер: Тим Миллер
Продюсер: Саймон Кинберг, Райан Рейнольдс, Лорен Шулер Доннер
Актеры: Райан Рейнольдс, Морена Баккарин, Джина Карано, ТиДжей Миллер, Эд Скрейн, Рэйчел Шин, Брианна Хилдебранд, Андре Трикоте, Тэйлор Хиксон, Джед Риис
Описание:
Уэйд Уилсон — наемник. Будучи побочным продуктом программы вооруженных сил под названием «Оружие Х», Уилсон приобрел невероятную силу, проворство и исцеляющий фактор. Но страшной ценой: его клеточная структура постоянно меняется, а его здравомыслие сомнительно. Все чего Уилсон хочет — это держаться на плаву в социальной выгребной яме. Но течение в ней слишком быстрое.
Возраст: 18 + (зрителям, достигшим 18 лет. запрещено для детей )
Рейтинг MPAA: R ( лицам до 17 лет обязательно присутствие взрослого)
Дата мировой премьеры: 21 января 2016
Дата премьеры в России: 11 февраля 2016, «Двадцатый Век Фокс СНГ»

Продолжительность: 01:47:47
Качество видео: WEBRip
Перевод: Дублированный [Чистый звук]
Субтитры: Отсутствуют
Реклама: Отсутстует.
Видео: MPEG4, XviD, 640x272 (2.35:1), 25.000 fps, 820 Kbps (0.188 bit/pixel)
Аудио: MP3, 48.0 KHz, 2 ch, 128 Kbps, CBR

Mediainfo:

Код:
Формат                                   : AVI
Формат/Информация                        : Audio Video Interleave
Размер файла                             : 739 Мбайт
Продолжительность                        : 1 ч. 47 м.
Общий поток                              : 958 Кбит/сек
Программа кодирования                    : VirtualDubMod 1.5.10.3 (build 2550/release)
Библиотека кодирования                   : VirtualDubMod build 2550/release
Видео
Идентификатор                            : 0
Формат                                   : MPEG-4 Visual
Профиль формата                          : Advanced Simple@L5
Параметр BVOP формата                    : 1
Параметр QPel формата                    : Нет
Параметр GMC формата                     : Без точки перехода
Параметр матрицы формата                 : Default (H.263)
Идентификатор кодека                     : XVID
Идентификатор кодека/Подсказка           : XviD
Продолжительность                        : 1 ч. 47 м.
Битрейт                                  : 820 Кбит/сек
Ширина                                   : 640 пикселей
Высота                                   : 272 пикселя
Соотношение сторон                       : 2,35:1
Частота кадров                           : 25,000 кадров/сек
Цветовое пространство                    : YUV
Субдискретизация насыщенности            : 4:2:0
Битовая глубина                          : 8 бит
Тип развёртки                            : Прогрессивная
Метод сжатия                             : С потерями
Бит/(Пиксели*Кадры)                      : 0.188
Размер потока                            : 632 Мбайт (86%)
Библиотека кодирования                   : XviD 73
Аудио
Идентификатор                            : 1
Формат                                   : MPEG Audio
Версия формата                           : Version 1
Профиль формата                          : Layer 3
Идентификатор кодека                     : 55
Идентификатор кодека/Подсказка           : MP3
Продолжительность                        : 1 ч. 47 м.
Вид битрейта                             : Постоянный
Битрейт                                  : 128 Кбит/сек
Каналы                                   : 2 канала
Частота                                  : 48,0 КГц
Метод сжатия                             : С потерями
Размер потока                            : 98,7 Мбайт (13%)
Выравнивание                             : Соединение по промежуткам
Продолжительность промежутка             : 40  мс. (1,00 видеокадр)
Время предзагрузки промежутка            : 504  мс.
Библиотека кодирования                   : LAME3.99r
Настройки программы                      : -m s -V 4 -q 2 -lowpass 17 -b 128
-Скриншоты:


Смотреть онлайн

[trackerock.ru].12296.torrent 
Торрент: Зарегистрирован   [ 2016-03-28 02:41 ]

Скачать торрент

15 KB

Статус: проверено
Скачан: 22 раз
Размер: 739 MB
 

Admin (28-мар-16)
Похожие торренты
Форум Тема Автор Размер
Фантастика Фэнтези Дэдпул / Deadpool (2016) HDRip (Кубик в Кубе) [18+] BiOS 1.46 GB
Фантастика Фэнтези Дэдпул / Deadpool (2016) WEBRip Admin 1.46 GB

_________________
[Профиль] [ЛС]
Показать сообщения:    
Ответить на тему

Текущее время: Сегодня 07:47

Часовой пояс: GMT + 4



Вы не можете начинать темы
Вы не можете отвечать на сообщения
Вы не можете редактировать свои сообщения
Вы не можете удалять свои сообщения
Вы не можете голосовать в опросах
Вы не можете прикреплять файлы к сообщениям
Вы можете скачивать файлы