Демоны да Винчи / Da Vinci's Demоns / Сезон: 1-2 / Серии: 1-18 из 18 [2013-2014]

Ответить на тему

Статистика раздачи [Обновить пиров]
Скачали
Размер:  12.3 GB   |    Зарегистрирован:  1 год 1 месяц   |    Скачан:  4 раза

Полного источника не было: 14 дней

 
 
 
 
Автор Сообщение

Admin ®

Стаж: 7 месяцев 8 дней

Сообщений: 4447

Откуда: trackeroc.ru


Пост 26-Окт-2015 15:26

[Цитировать]

Демоны да Винчи / Da Vinci's Demоns
Год выпуска: 2013-2014
Страна: США
Жанр: Приключения, драма, фэнтези.
Продолжительность: ~ 55 минут
Перевод: Профессиональный (многоголосый закадровый) [Fox]
Cубтитры: нет
Режиссёр: Майкл Дж. Бассетт, Дэвид С. Гойер, Джэми Пэйн...
В ролях: Том Райли, Лора Хэддок, Йен Пири, Эрос Влахос, Грегг Чиллин, Лара Пулвер, Том Бейтман, Гера Хилмарсдоттир, Эллиот Леви, Росс О’Хеннесси, Эллиот Кауэн, Джулиан Гиллард, Блэйк Ритсон...
Описание:
В мире, где мысль и вера находятся под контролем, один человек борется за то, чтобы сделать знания доступными для всех. Не рассказанная история трагичной жизни Леонардо Да Винчи раскрывает портрет молодого человека, которого мучает дар гения. Он — еретик, жаждущий раскрыть ложь религии. Бунтарь, стремящийся низвергнуть элитарное общество. Незаконнорожденный сын, требующий от своего отца признания его прав. Он оказывается посреди разразившегося урагана страстей, который спал веками. Внутри конфликта между правдой и ложью, религией и интеллектом, прошлым и будущим. Его стремления используются против него противоборствующими силами того времени, вовлекая его в соблазнительную игру, в которой те, кто презирает его ум, нуждаются в нём больше всего. Леонардо должен вступить в конфронтацию с теми, кто использует историю, чтобы скрыть истину. Вооружённый лишь собственным гением Да Винчи в одиночку противостоит тьме как внутри, так и снаружи. Перед лицом неопределённости будущего его поход за знаниями едва не становится для него погибелью, когда он переходит за грань своего здравомыслия. Да Винчи, словно в омут с головой, уходит в собственные гениальные идеи, воплотив которые, становится необоримой силой, вытаскивающей из темноты и поворачивающей к свету целую эпоху. Его история становится зеркалом для нашего мира, зовущее всех нас на бой за Свободное Будущее.
Сэмпл
Качество: WEB-DLRip
Формат: AVI
Видео кодек: XviD
Аудио кодек: MP3
Video: Xvid 720x400 ~1400 Kbps / ~1500 Kbps 23.976 fps / 25 fps 0.21 bit/pixel
Audio1: MPEG Audio Layer 3 48000Hz stereo 128kbps [Rus]
Audio2: MPEG Audio Layer 3 48000Hz stereo 128kbps [Eng]

Скриншоты#

MediaInfo 1#

Format : AVI
Format/Info : Audio Video Interleave
File size : 700 MiB
Duration : 58mn 22s
Overall bit rate : 1 676 Kbps
Writing application : VirtualDubMod 1.5.10.2 (build 2540/release)
Writing library : VirtualDubMod build 2540/release
Video #0
ID : 0
Format : MPEG-4 Visual
Format profile : Advanced Simple@L5
Format settings, BVOP : 2
Format settings, QPel : No
Format settings, GMC : No warppoints
Format settings, Matrix : Default (MPEG)
Codec ID : XVID
Codec ID/Hint : XviD
Duration : 58mn 22s
Bit rate : 1 406 Kbps
Width : 720 pixels
Height : 400 pixels
Display aspect ratio : 16:9
Frame rate : 23.976 fps
Color space : YUV
Chroma subsampling : 4:2:0
Bit depth : 8 bits
Scan type : Progressive
Compression mode : Lossy
Bits/(Pixel*Frame) : 0.204
Stream size : 587 MiB (84%)
Writing library : XviD 64
Audio #1
ID : 1
Format : MPEG Audio
Format version : Version 1
Format profile : Layer 3
Mode : Joint stereo
Mode extension : MS Stereo
Codec ID : 55
Codec ID/Hint : MP3
Duration : 58mn 22s
Bit rate mode : Constant
Bit rate : 128 Kbps
Channel(s) : 2 channels
Sampling rate : 48.0 KHz
Compression mode : Lossy
Stream size : 53.4 MiB (8%)
Alignment : Aligned on interleaves
Interleave, duration : 42 ms (1.00 video frame)
Interleave, preload duration : 504 ms
Audio #2
ID : 2
Format : MPEG Audio
Format version : Version 1
Format profile : Layer 3
Mode : Joint stereo
Mode extension : MS Stereo
Codec ID : 55
Codec ID/Hint : MP3
Duration : 58mn 22s
Bit rate mode : Constant
Bit rate : 128 Kbps
Channel(s) : 2 channels
Sampling rate : 48.0 KHz
Compression mode : Lossy
Stream size : 53.4 MiB (8%)
Alignment : Aligned on interleaves
Interleave, duration : 42 ms (1.00 video frame)
Interleave, preload duration : 504 ms

Mediainfo 2#

Format : AVI
Format/Info : Audio Video Interleave
File size : 699 MiB
Duration : 54mn 57s
Overall bit rate : 1 779 Kbps
Writing application : VirtualDubMod 1.5.10.2 (build 2540/release)
Writing library : VirtualDubMod build 2540/release
Video #0
ID : 0
Format : MPEG-4 Visual
Format profile : Advanced Simple@L5
Format settings, BVOP : 2
Format settings, QPel : No
Format settings, GMC : No warppoints
Format settings, Matrix : Default (MPEG)
Codec ID : XVID
Codec ID/Hint : XviD
Duration : 54mn 57s
Bit rate : 1 509 Kbps
Width : 720 pixels
Height : 400 pixels
Display aspect ratio : 16:9
Frame rate : 25.000 fps
Color space : YUV
Chroma subsampling : 4:2:0
Bit depth : 8 bits
Scan type : Progressive
Compression mode : Lossy
Bits/(Pixel*Frame) : 0.210
Stream size : 593 MiB (85%)
Writing library : XviD 64
Audio #1
ID : 1
Format : MPEG Audio
Format version : Version 1
Format profile : Layer 3
Mode : Joint stereo
Mode extension : MS Stereo
Codec ID : 55
Codec ID/Hint : MP3
Duration : 54mn 57s
Bit rate mode : Constant
Bit rate : 128 Kbps
Channel(s) : 2 channels
Sampling rate : 48.0 KHz
Compression mode : Lossy
Stream size : 50.3 MiB (7%)
Alignment : Aligned on interleaves
Interleave, duration : 40 ms (1.00 video frame)
Interleave, preload duration : 504 ms
Audio #2
ID : 2
Format : MPEG Audio
Format version : Version 1
Format profile : Layer 3
Mode : Joint stereo
Codec ID : 55
Codec ID/Hint : MP3
Duration : 54mn 57s
Bit rate mode : Constant
Bit rate : 128 Kbps
Channel(s) : 2 channels
Sampling rate : 48.0 KHz
Compression mode : Lossy
Stream size : 50.3 MiB (7%)
Alignment : Aligned on interleaves
Interleave, duration : 40 ms (1.00 video frame)
Interleave, preload duration : 504 ms

Список серий#

1 сезон:
01. Повешенный / The Hanged Man
02. Змей / The Serpent
03. Узник / The Prisoner
04. Маг / The Magician
05. Башня / The Tower
06. Дьявол / The Devil
07. Иерофант / The Hierophant
08. Любовники / The Lovers
2 сезон:
01. Кровь человеческая / The Blood of Man
02. Братья по крови / The Blood of Brothers
03. Путешествие проклятых / The Voyage of the Damned
04. Край света / The Ends of the Earth
05. Солнце и луна / The Sun and the Moon
06. Лиана мертвых / The Rope of the Dead
07. Небесный свод / The Vault of Heaven
08. Падение с небес / The Fall from Heaven
09. Враги человека / The Enemies of Man
10. Грехи Дедала / The Sins of Daedalus


Смотреть онлайн

[trackeroc.ru].9258.torrent 
Торрент: Зарегистрирован   [ 2015-10-26 15:26 ]

Скачать торрент

64 KB

Статус: проверено
Скачан: 12 раз
Размер: 12.3 GB
 

Похожие торренты
Форум Тема Автор Размер
Зарубежные сериалы Демоны Да Винчи / Da Vinci's Demons / 3 сезон 1-10 серии Admin 5.55 GB
Ужасы мистика триллеры Демоны Джун / June [2015, Ужасы, Фантастика, WEB-DL, 720p-LQ] Матвей 2.82 GB

_________________
[Профиль] [ЛС]
Показать сообщения:    
Ответить на тему

Текущее время: Сегодня 21:36

Часовой пояс: GMT + 4



Вы не можете начинать темы
Вы не можете отвечать на сообщения
Вы не можете редактировать свои сообщения
Вы не можете удалять свои сообщения
Вы не можете голосовать в опросах
Вы не можете прикреплять файлы к сообщениям
Вы можете скачивать файлы