Демоны Джун / June [2015, Ужасы, Фантастика, WEB-DL, 720p-LQ]

Ответить на тему

Статистика раздачи [Обновить пиров]
Размер:  2.82 GB   |    Зарегистрирован:  1 год 1 месяц   |    Скачан:  3 раза

Полного источника не было: 8 месяцев 18 дней

 
 
 
 
Автор Сообщение

Матвей ®

Стаж: 1 год 2 месяца

Сообщений: 236

Откуда: Челябинск


Пост 18-Окт-2015 11:23

[Цитировать]

Демоны Джун / June --- Производство: США / De Angeles Films, Raven Banner Entertainment
Жанр: Ужасы, Фантастика
Режиссер: Л. Густаво Купер
Актеры: Кеннеди Брайс, Виктория Прэтт, Эдди Джемисон, Лэнс Э. Николс, Каспер Ван Дин, Эдди Миллер, Эйден Флауэрс, Рэйчел Уитман Гровс, Джульетт Бивен, Келли Линд
Описание:
История девятилетней сироты, которая стала сосудом для сверхъестественного существа по имени Аер. Аер выходит наружу, когда Джун теряет над собой контроль, если другие дети дразнят, пугают или унижают её. Мечтавшая о семье Джун быстро привыкает к своим новым приемным родителям, Лили и Дэйву, но теперь ей предстоит открыть свое настоящее имя, чтобы победить своего внутреннего демона, спасти себя и свою новую семью, найти любовь и признание в этом хаотичном мире.
http://www.kinopoisk.ru/film/813929/
http://www.imdb.com/title/tt3379814/
Дата мировой премьеры: 27 мая 2015
Дата премьеры в России: 19 ноября 2015, «Ракета Релизинг»
Продолжительность: 01:23:34
Качество видео: WEB-DL
Перевод: Двуголосый закадровый, любительский
Озвучка / Автор перевода: den904 & DeadSno (перевод dsa69)
Вид субтитров: Отсутствуют
Видео: AVC/H.264, 1280x536, ~3963 kb/s
Аудио 1: AC3, 6 ch, 384 kb/s, CBR - Русский
Аудио 2: AC3, 6 ch, 384 kb/s, CBR - Английский
Семпл: Скачать

Mediainfo:

Код:
General
Unique ID                      : 179658770828038545054526213998136879564 (0x87290549617CF158A8AFFBB8EA8169CC)
Complete name                  : D:\Downloading\Demony.Dzhun.2015.WEB-DL.720p.mkv
Format                         : Matroska
Format version                 : Version 2
File size                      : 2.82 GiB
Duration                       : 1h 23mn
Overall bit rate               : 4 827 Kbps
Encoded date                   : UTC 2015-10-17 13:15:05
Writing application            : mkvmerge v7.8.0 ('River Man') 32bit built on Apr  3 2015 12:11:22
Writing library                : libebml v1.3.1 + libmatroska v1.4.2
Video
ID                             : 1
Format                         : AVC
Format/Info                    : Advanced Video Codec
Format profile                 : [url=mailto:Main@L3.1]Main@L3.1[/url]
Format settings, CABAC         : No
Format settings, ReFrames      : 2 frames
Codec ID                       : V_MPEG4/ISO/AVC
Duration                       : 1h 23mn
Bit rate                       : 3 963 Kbps
Width                          : 1 280 pixels
Height                         : 536 pixels
Display aspect ratio           : 2.40:1
Frame rate mode                : Constant
Frame rate                     : 23.976 fps
Color space                    : YUV
Chroma subsampling             : 4:2:0
Bit depth                      : 8 bits
Scan type                      : Progressive
Bits/(Pixel*Frame)             : 0.241
Stream size                    : 2.31 GiB (82%)
Language                       : English
Default                        : Yes
Forced                         : No
Color range                    : Limited
Color primaries                : BT.709
Transfer characteristics       : BT.709
Matrix coefficients            : BT.709
Audio #1
ID                             : 2
Format                         : AC-3
Format/Info                    : Audio Coding 3
Mode extension                 : CM (complete main)
Format settings, Endianness    : Big
Codec ID                       : A_AC3
Duration                       : 1h 23mn
Bit rate mode                  : Constant
Bit rate                       : 384 Kbps
Channel(s)                     : 6 channels
Channel positions              : Front: L C R, Side: L R, LFE
Sampling rate                  : 48.0 KHz
Compression mode               : Lossy
Stream size                    : 230 MiB (8%)
Language                       : Russian
Default                        : Yes
Forced                         : No
Audio #2
ID                             : 3
Format                         : AC-3
Format/Info                    : Audio Coding 3
Mode extension                 : CM (complete main)
Format settings, Endianness    : Big
Codec ID                       : A_AC3
Duration                       : 1h 23mn
Bit rate mode                  : Constant
Bit rate                       : 384 Kbps
Channel(s)                     : 6 channels
Channel positions              : Front: L C R, Side: L R, LFE
Sampling rate                  : 48.0 KHz
Compression mode               : Lossy
Stream size                    : 230 MiB (8%)
Language                       : English
Default                        : No
Forced                         : No
Menu
00:00:00.000                   : en:Chapter 1
00:07:19.000                   : en:Chapter 2
00:14:53.000                   : en:Chapter 3
00:20:56.000                   : en:Chapter 4
00:29:47.000                   : en:Chapter 5
00:37:24.000                   : en:Chapter 6
00:43:32.000                   : en:Chapter 7
00:53:12.000                   : en:Chapter 8
01:00:39.000                   : en:Chapter 9
01:08:02.000                   : en:Chapter 10
01:21:19.000                   : en:Chapter 11


Смотреть онлайн

[trackeroc.ru].8903.torrent 
 СЕРЕБРЯНАЯ РАЗДАЧА! СКАЧАННОЕ ЗАСЧИТЫВАЕТСЯ ТОЛЬКО НАПОЛОВИНУ! 
Торрент: Зарегистрирован   [ 2015-10-18 11:23 ]

Скачать торрент

15 KB

Статус: проверено
Скачан: 20 раз
Размер: 2.82 GB
 

Admin (18-окт-15)
Похожие торренты
Форум Тема Автор Размер
Зарубежные сериалы Демоны Да Винчи / Da Vinci's Demons / 3 сезон 1-10 серии Admin 5.55 GB
Зарубежные сериалы Демоны да Винчи / Da Vinci's Demоns / Сезон: 1-2 / Серии: 1-18 из 18 [2013-2014] Admin 12.3 GB

_________________

[Профиль] [ЛС]
Показать сообщения:    
Ответить на тему

Текущее время: Сегодня 19:59

Часовой пояс: GMT + 4



Вы не можете начинать темы
Вы не можете отвечать на сообщения
Вы не можете редактировать свои сообщения
Вы не можете удалять свои сообщения
Вы не можете голосовать в опросах
Вы не можете прикреплять файлы к сообщениям
Вы можете скачивать файлы