"День сотрудника органов внутренних дел". Праздничный концерт (2015) SATRip

Ответить на тему

Статистика раздачи [Обновить пиров]
Скачали
Размер:  1.68 GB   |    Зарегистрирован:  1 год   |    Скачан:  4 раза

Полного источника не было: 2 месяца 2 дня

 
 
 
 
Автор Сообщение

BiOS ®

Стаж: 2 года 7 месяцев

Сообщений: 1738

Откуда: Raccoon City


Пост 11-Ноя-2015 00:35

[Цитировать]

"День сотрудника органов внутренних дел". Праздничный концерт - Производство: Россия, Первый канал
Жанр: Концерт
Ведущие: Заслуженный артист России Евгений Дятлов и Народная артистка России Елена Яковлева, Яна Чурикова и Валдис Пельш.
Исполнители: Алла Пугачева, Группа "Любэ", Александр Розенбаум, Тамара Гвердцители, Александр Маршал, Максим Галкин, Лев Лещенко, Григорий Лепс, Кристина Орбакайте, Дмитрий Билан, Жасмин, Лариса Долина, Елена Ваенга, Ирина Аллегрова.....
Описание:10 ноября страна поздравляет сотрудников органов внутренних дел России с профессиональным праздником.
Народный артист СССР Василий Лановой: - Каждый год 10 ноября знакомые и друзья считают своим долгом поздравить меня с Днём работника органов Внутренних дел. Причина тому – сыгранная мною роль майора Костенко в фильмах "Петровка 38" и "Огарёва 6". Мне довелось на себе испытать труд оперативного сотрудника. Это работа для настоящих мужчин.
Концерт к этому дню всегда грандиозен, поэтому самые лучшие артисты, певцы и юмористы считают честью в нем участвовать и стараются порадовать зрителей. В этот день поздравят работников полиции торжественным концертом звезды отечественной эстрады: Алла Пугачева, Группа "Любэ", Александр Розенбаум, Тамара Гвердцители, Александр Маршал, Максим Галкин, Лев Лещенко, Григорий Лепс, Кристина Орбакайте, Дмитрий Билан, Жасмин, Лариса Долина, Елена Ваенга, Ирина Аллегрова, Филипп Киркоров и многие другие.
Продолжительность: 02:00:17
Качество видео: SATRip
Видео: Xvid, 720x400, ~1800 Кбит/сек
Аудио: AC3, 2 ch, 192 Кбит/сек, CBR

Mediainfo

Код:
Общее
Полное имя                               : F:\видео\фильмы\День сотрудника МВД Праздничный Концерт 2015 .avi
Формат                                   : AVI
Формат/Информация                        : Audio Video Interleave
Размер файла                             : 1,68 Гбайт
Продолжительность                        : 2 ч. 0 м.
Общий поток                              : 2002 Кбит/сек
Программа кодирования                    : VirtualDubMod 1.5.10.3 | www.virtualdub-fr.org || (build 2550/release)
Библиотека кодирования                   : VirtualDubMod build 2550/release
Видео
Идентификатор                            : 0
Формат                                   : MPEG-4 Visual
Профиль формата                          : Advanced Simple@L5
Параметр BVOP формата                    : 1
Параметр QPel формата                    : Нет
Параметр GMC формата                     : Без точки перехода
Параметр матрицы формата                 : Default (H.263)
Идентификатор кодека                     : XVID
Идентификатор кодека/Подсказка           : XviD
Продолжительность                        : 2 ч. 0 м.
Битрейт                                  : 1800 Кбит/сек
Ширина                                   : 720 пикселей
Высота                                   : 400 пикселей
Соотношение сторон                       : 16:9
Частота кадров                           : 25,000 кадров/сек
Цветовое пространство                    : YUV
Субдискретизация насыщенности            : 4:2:0
Битовая глубина                          : 8 бит
Тип развёртки                            : Прогрессивная
Метод сжатия                             : С потерями
Бит/(Пиксели*Кадры)                      : 0.250
Размер потока                            : 1,51 Гбайт (90%)
Библиотека кодирования                   : XviD 1.2.1 (UTC 2008-12-04)
Аудио
Идентификатор                            : 1
Формат                                   : AC-3
Формат/Информация                        : Audio Coding 3
Расширение режима                        : CM (complete main)
Параметр Endianness формата              : Big
Идентификатор кодека                     : 2000
Продолжительность                        : 2 ч. 0 м.
Вид битрейта                             : Постоянный
Битрейт                                  : 192 Кбит/сек
Каналы                                   : 2 канала
Расположение каналов                     : Front: L R
Частота                                  : 48,0 КГц
Метод сжатия                             : С потерями
Размер потока                            : 165 Мбайт (10%)
Выравнивание                             : Разделение по промежуткам
Продолжительность промежутка             : 40  мс. (1,00 видеокадр)
Время предзагрузки промежутка            : 500  мс.
-Скриншоты:


[trackeroc.ru].9654.torrent 
Торрент: Зарегистрирован   [ 2015-11-11 00:35 ]

Скачать торрент

18 KB

Статус: проверено
Скачан: 71 раз
Размер: 1.68 GB
 

Admin (10-ноя-15)
Похожие торренты
Форум Тема Автор Размер
Логические игры, пазлы ,три в ряд Sakura Day 2. Mahjong / День сакуры 2. Маджонг (2016) [RUS] [P] HOPE 44 MB
Приключенческие игры Adventure Петька и Василий Иванович 2: Судный день. Перезагрузка / Red Comrades 2: For the Great Justice. Reloaded (2016) [RUS/ENG] DarthNihilus 189 MB
Книги Анджей Сапковский | Серия "Ведьмак" [9 книг] (2012-2013) [FB2] BiOS 14 MB
Фантастика Фэнтези День независимости: Возрождение / Independence Day: Resurgence (2016) WEBRip | D | звук c CAMRip BiOS 1.37 GB
Arcade , Аркады , Платформеры FL337 - "Fleet" v15.06.2016 [Early Access] (2016) (ENG) Admin 219 MB

_________________
[Профиль] [ЛС]
Показать сообщения:    
Ответить на тему

Текущее время: Сегодня 20:28

Часовой пояс: GMT + 4



Вы не можете начинать темы
Вы не можете отвечать на сообщения
Вы не можете редактировать свои сообщения
Вы не можете удалять свои сообщения
Вы не можете голосовать в опросах
Вы не можете прикреплять файлы к сообщениям
Вы можете скачивать файлы