День выборов 2 [2016, комедия, WEB-DLRip]

Ответить на тему

Статистика раздачи [Обновить пиров]
Размер:  1.46 GB   |    Зарегистрирован:  8 месяцев 15 дней   |    Скачан:  5 раз

Полного источника не было: 1 месяц 23 дня

 
 
 
 
Автор Сообщение

Admin ®

Стаж: 7 месяцев 16 дней

Сообщений: 4460

Откуда: trackeroc.ru


Пост 26-Мар-2016 18:38

[Цитировать]

-День выборов 2- Жанр: Комедия
Год выпуска: 2016
Продолжительность: 01:44:06-Режиссёр: Александр Баршак-В ролях: Леонид Барац, Ростислав Хаит, Александр Демидов, Камиль Ларин, Василий Уткин, Нонна Гришаева, Максим Виторган, Михаил Ефремов, Алексей Макаров, Алексей Кортнев-Описание: Игорь Цаплин будет избираться на третий срок, а поможет ему в этом уже знакомая зрителю команда пиарщиков.- -
Качество видео
: WEB-DLRip
Формат видео: AVI
Видео:XviD, 720x304 (2.35:1), 25.000 fps, ~1615 kbps avg, 0.295 bit/pixel
Аудио:48 kHz, AC3 Dolby Digital, 3/2 (L,C,R,l,r) + LFE ch, ~384 kbps-

MediaInfo

General
Complete name : D:\Фильмы\Den.viborov.2.avi
Format : AVI
Format/Info : Audio Video Interleave
File size : 1.46 GiB
Duration : 1h 44mn
Overall bit rate : 2 009 Kbps
Writing application : VirtualDubMod 1.5.10.3 | www.virtualdub-fr.org || (build 2550/release)
Writing library : VirtualDubMod build 2550/release
Video
ID : 0
Format : MPEG-4 Visual
Format profile : Advanced Simple@L5
Format settings, BVOP : 2
Format settings, QPel : No
Format settings, GMC : No warppoints
Format settings, Matrix : Default (MPEG)
Codec ID : XVID
Codec ID/Hint : XviD
Duration : 1h 44mn
Bit rate : 1 615 Kbps
Width : 720 pixels
Height : 304 pixels
Display aspect ratio : 2.35:1
Frame rate : 25.000 fps
Color space : YUV
Chroma subsampling : 4:2:0
Bit depth : 8 bits
Scan type : Progressive
Compression mode : Lossy
Bits/(Pixel*Frame) : 0.295
Stream size : 1.17 GiB (80%)
Writing library : XviD 1.2.1 (UTC 2008-12-04)
Audio
ID : 1
Format : AC-3
Format/Info : Audio Coding 3
Mode extension : CM (complete main)
Format settings, Endianness : Big
Codec ID : 2000
Duration : 1h 44mn
Bit rate mode : Constant
Bit rate : 384 Kbps
Channel(s) : 6 channels
Channel positions : Front: L C R, Side: L R, LFE
Sampling rate : 48.0 KHz
Frame rate : 31.250 fps (1536 spf)
Compression mode : Lossy
Stream size : 286 MiB (19%)
Alignment : Split accross interleaves
Interleave, duration : 40 ms (1.00 video frame)
Interleave, preload duratio : 500 ms
-

Скриншот c названием фильма

-


Смотреть онлайн

[trackerock.ru].12265.torrent 
Торрент: Зарегистрирован   [ 2016-03-26 18:38 ]

Скачать торрент

30 KB

Статус: * не проверено
Скачан: 17 раз
Размер: 1.46 GB
 

Похожие торренты
Форум Тема Автор Размер
Логические игры, пазлы ,три в ряд Sakura Day 2. Mahjong / День сакуры 2. Маджонг (2016) [RUS] [P] HOPE 44 MB
Приключенческие игры Adventure Петька и Василий Иванович 2: Судный день. Перезагрузка / Red Comrades 2: For the Great Justice. Reloaded (2016) [RUS/ENG] DarthNihilus 189 MB
Фантастика Фэнтези День независимости: Возрождение / Independence Day: Resurgence (2016) WEBRip | D | звук c CAMRip BiOS 1.37 GB
Фантастика Фэнтези День независимости / Independence Day (1996) BDRip [H.264/1080p] Remastered BiOS 21.41 GB
Фантастика Фэнтези День независимости / Independents' Day (2016) WEB-DLRip BiOS 1.36 GB

_________________
[Профиль] [ЛС]
Показать сообщения:    
Ответить на тему

Текущее время: Сегодня 11:48

Часовой пояс: GMT + 4



Вы не можете начинать темы
Вы не можете отвечать на сообщения
Вы не можете редактировать свои сообщения
Вы не можете удалять свои сообщения
Вы не можете голосовать в опросах
Вы не можете прикреплять файлы к сообщениям
Вы можете скачивать файлы