Десятое королевство / The 10th Kingdom / Сезон: 1 / Серии: 1-5 из 5 [2000,DVDRip-AVC] MVO ("CP Digital") + Rus Sub + Original Eng

Ответить на тему

Статистика раздачи [Обновить пиров]
Скачали
Размер:  7.95 GB   |    Зарегистрирован:  1 год 1 месяц   |    Скачан:  4 раза

Полного источника не было: 18 часов

 
 
 
 
Автор Сообщение

BiOS ®

Стаж: 2 года 7 месяцев

Сообщений: 1732

Откуда: Raccoon City


Пост 20-Окт-2015 14:01

[Цитировать]

Десятое королевство / The 10th Kingdom
«Невероятные фантастические путешествия в параллельных мирах»
Год выпуска: 2000
Страна: США, Великобритания, Германия (ФРГ)
Жанр: фэнтези, мелодрама, комедия, детектив, приключения
Продолжительность: 01:25:39 + 01:24:34 + 01:25:15 + 01:24:31 + 01:24:23
Перевод: Профессиональный (многоголосый закадровый) - "CP Digital"
Русские субтитры: есть
Режиссёр: Дэвид Карсон / David Carson, Херберт Уайз / Herbert Wise
В ролях: Кимберли Уильямс-Пэйсли, Скотт Коэн, Джон Ларрокетт, Дайэнн Уист, Дэниэл Лапэйн, Эд О’Нил, Рутгер Хауэр, Доун Льюис, Хью О’Горман, Джереми Биркетт.
Описание: Официантка нью-йоркского кафе Вирджиния однажды спасает песика, который оказывается заколдованным принцем Венделом, сбежавшим из Страны Девяти Королевств в наш мир, спасаясь от злой Королевы-Мачехи. Принц приходится внуком Белоснежке и является прямым наследником трона, но у Королевы свои планы.
Она посылает уродливых и злых троллей убить принца, и они тоже перебираются в наш мир… Так, неожиданно для себя, обычная современная девушка Вирджиния оказывается в самом центре невероятных фантастических событий.-Качество: DVDRip-AVC
Формат: MKV
Видео кодек: H.264
Аудио кодек: AC3
Видео: x264, 712x568@759x568(Анаморф), 1.337:1, 25.000 fps, 2014 kbit/s, Progressive, 0.199 Bits/(Pixel*Frame)
Аудио 1: AC-3, 48 KHz, 6 ch, 448 Kbps, Русский - Профессиональный (многоголосый закадровый) - "CP Digital"
Аудио 2: AC-3, 48 KHz, 2 ch, 192 Kbps, Английский - Original
Субтитры: Русский_SSA

x264_log_2nd pass__по Сериям

1-я Серия
---[Information] [20-Jun-2013 9:00:51] raw [info]: 712x568p 16:15 @ 25/1 fps (cfr)
---[Information] [20-Jun-2013 9:00:51] x264 [info]: using SAR=16/15
---[Information] [20-Jun-2013 9:00:51] x264 [info]: using cpu capabilities: MMX2 SSE2Fast SSSE3 SSE4.2 AVX
---[Information] [20-Jun-2013 9:00:51] x264 [info]: profile High, level 4.1
---[Information] [20-Jun-2013 13:37:19] x264 [info]: frame I:935 Avg QP:21.43 size: 35583
---[Information] [20-Jun-2013 13:37:19] x264 [info]: frame P:28304 Avg QP:22.55 size: 17065
---[Information] [20-Jun-2013 13:37:19] x264 [info]: frame B:99246 Avg QP:23.18 size: 7833
---[Information] [20-Jun-2013 13:37:19] x264 [info]: consecutive B-frames: 1.9% 2.5% 10.4% 22.3% 18.4% 30.3% 9.6% 1.3% 0.9% 1.0% 0.4% 0.2% 0.8%
---[Information] [20-Jun-2013 13:37:19] x264 [info]: mb I I16..4: 10.0% 73.5% 16.5%
---[Information] [20-Jun-2013 13:37:19] x264 [info]: mb P I16..4: 4.1% 23.1% 3.3% P16..4: 40.3% 19.7% 4.7% 1.4% 0.2% skip: 3.1%
---[Information] [20-Jun-2013 13:37:19] x264 [info]: mb B I16..4: 0.7% 3.6% 0.5% B16..8: 34.9% 15.6% 2.1% direct: 8.8% skip:33.7% L0:36.7% L1:44.3% BI:19.1%
---[Information] [20-Jun-2013 13:37:19] x264 [info]: 8x8 transform intra:75.8% inter:60.8%
---[Information] [20-Jun-2013 13:37:19] x264 [info]: direct mvs spatial:97.7% temporal:2.3%
---[Information] [20-Jun-2013 13:37:19] x264 [info]: coded y,uvDC,uvAC intra: 76.5% 68.1% 26.8% inter: 28.6% 25.9% 4.0%
---[Information] [20-Jun-2013 13:37:19] x264 [info]: i16 v,h,dc,p: 16% 11% 3% 70%
---[Information] [20-Jun-2013 13:37:19] x264 [info]: i8 v,h,dc,ddl,ddr,vr,hd,vl,hu: 13% 10% 5% 8% 12% 13% 12% 13% 14%
---[Information] [20-Jun-2013 13:37:19] x264 [info]: i4 v,h,dc,ddl,ddr,vr,hd,vl,hu: 14% 11% 4% 8% 13% 14% 13% 10% 13%
---[Information] [20-Jun-2013 13:37:19] x264 [info]: i8c dc,h,v,p: 25% 27% 24% 25%
---[Information] [20-Jun-2013 13:37:19] x264 [info]: Weighted P-Frames: Y:4.9% UV:3.1%
---[Information] [20-Jun-2013 13:37:19] x264 [info]: ref P L0: 51.9% 4.4% 17.6% 7.9% 5.4% 4.0% 3.0% 1.8% 1.4% 1.1% 0.9% 0.7% 0.1% 0.0%
---[Information] [20-Jun-2013 13:37:19] x264 [info]: ref B L0: 79.3% 12.3% 3.6% 1.6% 1.1% 0.8% 0.6% 0.3% 0.2% 0.1% 0.1%
---[Information] [20-Jun-2013 13:37:19] x264 [info]: ref B L1: 93.9% 6.1%
---[Information] [20-Jun-2013 13:37:19] x264 [info]: kb/s:2013.75
---[Information] [20-Jun-2013 13:37:19] encoded 128485 frames, 7.75 fps, 2013.75 kb/s
--2-я Серия
---[Information] [20-Jun-2013 18:43:45] raw [info]: 712x568p 16:15 @ 25/1 fps (cfr)
---[Information] [20-Jun-2013 18:43:45] x264 [info]: using SAR=16/15
---[Information] [20-Jun-2013 18:43:45] x264 [info]: using cpu capabilities: MMX2 SSE2Fast SSSE3 SSE4.2 AVX
---[Information] [20-Jun-2013 18:43:45] x264 [info]: profile High, level 4.1
---[Information] [20-Jun-2013 23:42:33] x264 [info]: frame I:1054 Avg QP:22.00 size: 39995
---[Information] [20-Jun-2013 23:42:33] x264 [info]: frame P:27056 Avg QP:23.08 size: 17992
---[Information] [20-Jun-2013 23:42:33] x264 [info]: frame B:98751 Avg QP:23.72 size: 7802
---[Information] [20-Jun-2013 23:42:33] x264 [info]: consecutive B-frames: 1.8% 2.1% 8.3% 22.6% 16.8% 33.2% 10.8% 1.4% 0.6% 0.9% 0.3% 0.2% 0.9%
---[Information] [20-Jun-2013 23:42:33] x264 [info]: mb I I16..4: 7.4% 74.6% 18.0%
---[Information] [20-Jun-2013 23:42:33] x264 [info]: mb P I16..4: 3.0% 21.2% 3.4% P16..4: 41.0% 20.0% 5.5% 1.9% 0.2% skip: 3.8%
---[Information] [20-Jun-2013 23:42:33] x264 [info]: mb B I16..4: 0.5% 3.4% 0.5% B16..8: 33.6% 15.4% 2.2% direct: 8.7% skip:35.6% L0:35.7% L1:43.4% BI:20.8%
---[Information] [20-Jun-2013 23:42:33] x264 [info]: 8x8 transform intra:76.6% inter:57.4%
---[Information] [20-Jun-2013 23:42:33] x264 [info]: direct mvs spatial:97.8% temporal:2.2%
---[Information] [20-Jun-2013 23:42:33] x264 [info]: coded y,uvDC,uvAC intra: 79.1% 71.2% 29.0% inter: 28.3% 24.3% 3.8%
---[Information] [20-Jun-2013 23:42:33] x264 [info]: i16 v,h,dc,p: 15% 11% 3% 71%
---[Information] [20-Jun-2013 23:42:33] x264 [info]: i8 v,h,dc,ddl,ddr,vr,hd,vl,hu: 13% 10% 5% 8% 11% 13% 12% 13% 14%
---[Information] [20-Jun-2013 23:42:33] x264 [info]: i4 v,h,dc,ddl,ddr,vr,hd,vl,hu: 13% 11% 4% 8% 13% 13% 13% 11% 14%
---[Information] [20-Jun-2013 23:42:33] x264 [info]: i8c dc,h,v,p: 25% 25% 23% 27%
---[Information] [20-Jun-2013 23:42:33] x264 [info]: Weighted P-Frames: Y:5.3% UV:2.9%
---[Information] [20-Jun-2013 23:42:33] x264 [info]: ref P L0: 52.8% 5.6% 18.1% 7.4% 4.8% 3.5% 2.6% 1.5% 1.2% 1.0% 0.7% 0.6% 0.1% 0.0%
---[Information] [20-Jun-2013 23:42:33] x264 [info]: ref B L0: 79.7% 12.4% 3.4% 1.5% 1.0% 0.7% 0.5% 0.3% 0.2% 0.1% 0.1%
---[Information] [20-Jun-2013 23:42:33] x264 [info]: ref B L1: 94.6% 5.4%
---[Information] [20-Jun-2013 23:42:33] x264 [info]: kb/s:2048.54
---[Information] [20-Jun-2013 23:42:33] encoded 126861 frames, 7.10 fps, 2048.55 kb/s
--3-я Серия
---[Information] [21-Jun-2013 5:51:55] raw [info]: 712x568p 16:15 @ 25/1 fps (cfr)
---[Information] [21-Jun-2013 5:51:55] x264 [info]: using SAR=16/15
---[Information] [21-Jun-2013 5:51:55] x264 [info]: using cpu capabilities: MMX2 SSE2Fast SSSE3 SSE4.2 AVX
---[Information] [21-Jun-2013 5:51:55] x264 [info]: profile High, level 4.1
---[Information] [21-Jun-2013 10:47:37] x264 [info]: frame I:1055 Avg QP:22.70 size: 39599
---[Information] [21-Jun-2013 10:47:37] x264 [info]: frame P:27805 Avg QP:23.86 size: 17732
---[Information] [21-Jun-2013 10:47:37] x264 [info]: frame B:99007 Avg QP:24.50 size: 7687
---[Information] [21-Jun-2013 10:47:37] x264 [info]: consecutive B-frames: 1.8% 2.3% 9.1% 24.4% 16.7% 32.8% 9.5% 1.3% 0.6% 0.6% 0.2% 0.1% 0.5%
---[Information] [21-Jun-2013 10:47:37] x264 [info]: mb I I16..4: 7.4% 75.3% 17.3%
---[Information] [21-Jun-2013 10:47:37] x264 [info]: mb P I16..4: 3.0% 21.4% 3.2% P16..4: 41.5% 20.1% 5.4% 1.7% 0.2% skip: 3.5%
---[Information] [21-Jun-2013 10:47:37] x264 [info]: mb B I16..4: 0.5% 3.4% 0.4% B16..8: 33.8% 15.8% 2.3% direct: 8.5% skip:35.1% L0:35.3% L1:43.8% BI:20.9%
---[Information] [21-Jun-2013 10:47:37] x264 [info]: 8x8 transform intra:77.5% inter:59.6%
---[Information] [21-Jun-2013 10:47:37] x264 [info]: direct mvs spatial:98.1% temporal:1.9%
---[Information] [21-Jun-2013 10:47:37] x264 [info]: coded y,uvDC,uvAC intra: 79.6% 74.9% 33.5% inter: 28.8% 26.8% 4.5%
---[Information] [21-Jun-2013 10:47:37] x264 [info]: i16 v,h,dc,p: 15% 11% 3% 70%
---[Information] [21-Jun-2013 10:47:37] x264 [info]: i8 v,h,dc,ddl,ddr,vr,hd,vl,hu: 14% 10% 4% 8% 11% 13% 12% 13% 14%
---[Information] [21-Jun-2013 10:47:37] x264 [info]: i4 v,h,dc,ddl,ddr,vr,hd,vl,hu: 14% 10% 4% 8% 13% 14% 13% 11% 13%
---[Information] [21-Jun-2013 10:47:37] x264 [info]: i8c dc,h,v,p: 26% 23% 23% 28%
---[Information] [21-Jun-2013 10:47:37] x264 [info]: Weighted P-Frames: Y:4.7% UV:2.7%
---[Information] [21-Jun-2013 10:47:37] x264 [info]: ref P L0: 52.1% 5.5% 18.6% 7.5% 4.9% 3.5% 2.7% 1.5% 1.2% 1.0% 0.8% 0.6% 0.1% 0.0%
---[Information] [21-Jun-2013 10:47:37] x264 [info]: ref B L0: 80.9% 11.8% 3.1% 1.4% 0.9% 0.7% 0.5% 0.3% 0.2% 0.1% 0.1%
---[Information] [21-Jun-2013 10:47:37] x264 [info]: ref B L1: 95.1% 4.9%
---[Information] [21-Jun-2013 10:47:37] x264 [info]: kb/s:2026.95
---[Information] [21-Jun-2013 10:47:37] encoded 127867 frames, 7.21 fps, 2026.95 kb/s
--4-я Серия
---[Information] [21-Jun-2013 15:45:45] raw [info]: 712x568p 16:15 @ 25/1 fps (cfr)
---[Information] [21-Jun-2013 15:45:45] x264 [info]: using SAR=16/15
---[Information] [21-Jun-2013 15:45:45] x264 [info]: using cpu capabilities: MMX2 SSE2Fast SSSE3 SSE4.2 AVX
---[Information] [21-Jun-2013 15:45:45] x264 [info]: profile High, level 4.1
---[Information] [21-Jun-2013 20:35:30] x264 [info]: frame I:1056 Avg QP:21.26 size: 42437
---[Information] [21-Jun-2013 20:35:30] x264 [info]: frame P:26381 Avg QP:22.41 size: 18503
---[Information] [21-Jun-2013 20:35:30] x264 [info]: frame B:99346 Avg QP:22.98 size: 7711
---[Information] [21-Jun-2013 20:35:30] x264 [info]: consecutive B-frames: 1.5% 1.8% 8.0% 20.3% 20.0% 33.0% 10.1% 1.6% 1.0% 1.2% 0.5% 0.3% 0.7%
---[Information] [21-Jun-2013 20:35:30] x264 [info]: mb I I16..4: 7.7% 73.4% 18.9%
---[Information] [21-Jun-2013 20:35:30] x264 [info]: mb P I16..4: 2.6% 17.9% 2.9% P16..4: 44.0% 21.1% 6.0% 2.1% 0.3% skip: 3.0%
---[Information] [21-Jun-2013 20:35:30] x264 [info]: mb B I16..4: 0.5% 2.7% 0.4% B16..8: 33.8% 15.9% 2.3% direct: 9.0% skip:35.5% L0:35.1% L1:43.3% BI:21.6%
---[Information] [21-Jun-2013 20:35:30] x264 [info]: 8x8 transform intra:76.0% inter:57.7%
---[Information] [21-Jun-2013 20:35:30] x264 [info]: direct mvs spatial:97.5% temporal:2.5%
---[Information] [21-Jun-2013 20:35:30] x264 [info]: coded y,uvDC,uvAC intra: 79.0% 75.3% 39.9% inter: 28.4% 29.8% 7.2%
---[Information] [21-Jun-2013 20:35:30] x264 [info]: i16 v,h,dc,p: 16% 10% 3% 71%
---[Information] [21-Jun-2013 20:35:30] x264 [info]: i8 v,h,dc,ddl,ddr,vr,hd,vl,hu: 14% 9% 5% 8% 11% 13% 12% 13% 14%
---[Information] [21-Jun-2013 20:35:30] x264 [info]: i4 v,h,dc,ddl,ddr,vr,hd,vl,hu: 15% 10% 4% 8% 13% 14% 13% 11% 13%
---[Information] [21-Jun-2013 20:35:30] x264 [info]: i8c dc,h,v,p: 28% 23% 24% 25%
---[Information] [21-Jun-2013 20:35:30] x264 [info]: Weighted P-Frames: Y:4.9% UV:2.9%
---[Information] [21-Jun-2013 20:35:30] x264 [info]: ref P L0: 50.3% 6.4% 17.8% 7.6% 5.2% 3.9% 2.9% 1.8% 1.4% 1.1% 0.9% 0.7% 0.1% 0.0%
---[Information] [21-Jun-2013 20:35:30] x264 [info]: ref B L0: 77.8% 13.4% 3.6% 1.7% 1.1% 0.8% 0.6% 0.4% 0.3% 0.2% 0.1%
---[Information] [21-Jun-2013 20:35:30] x264 [info]: ref B L1: 93.8% 6.2%
---[Information] [21-Jun-2013 20:35:30] x264 [info]: kb/s:2049.15
---[Information] [21-Jun-2013 20:35:30] encoded 126783 frames, 7.29 fps, 2049.16 kb/s
--5-я Серия
---[Information] [22-Jun-2013 1:55:50] raw [info]: 712x568p 16:15 @ 25/1 fps (cfr)
---[Information] [22-Jun-2013 1:55:50] x264 [info]: using SAR=16/15
---[Information] [22-Jun-2013 1:55:50] x264 [info]: using cpu capabilities: MMX2 SSE2Fast SSSE3 SSE4.2 AVX
---[Information] [22-Jun-2013 1:55:50] x264 [info]: profile High, level 4.1
---[Information] [22-Jun-2013 7:11:20] x264 [info]: frame I:920 Avg QP:21.02 size: 37266
---[Information] [22-Jun-2013 7:11:20] x264 [info]: frame P:26894 Avg QP:22.22 size: 18094
---[Information] [22-Jun-2013 7:11:20] x264 [info]: frame B:98769 Avg QP:22.80 size: 7886
---[Information] [22-Jun-2013 7:11:20] x264 [info]: consecutive B-frames: 1.6% 2.2% 7.9% 22.0% 18.1% 33.6% 9.9% 1.4% 0.8% 1.0% 0.4% 0.2% 0.9%
---[Information] [22-Jun-2013 7:11:20] x264 [info]: mb I I16..4: 10.1% 71.6% 18.2%
---[Information] [22-Jun-2013 7:11:20] x264 [info]: mb P I16..4: 3.9% 22.3% 3.1% P16..4: 40.5% 20.0% 5.2% 1.8% 0.2% skip: 3.1%
---[Information] [22-Jun-2013 7:11:20] x264 [info]: mb B I16..4: 0.7% 3.3% 0.4% B16..8: 34.3% 15.8% 2.1% direct:10.0% skip:33.4% L0:35.8% L1:43.0% BI:21.2%
---[Information] [22-Jun-2013 7:11:20] x264 [info]: 8x8 transform intra:75.6% inter:57.2%
---[Information] [22-Jun-2013 7:11:20] x264 [info]: direct mvs spatial:97.4% temporal:2.6%
---[Information] [22-Jun-2013 7:11:20] x264 [info]: coded y,uvDC,uvAC intra: 75.3% 74.2% 37.1% inter: 29.2% 31.8% 7.2%
---[Information] [22-Jun-2013 7:11:20] x264 [info]: i16 v,h,dc,p: 19% 10% 3% 67%
---[Information] [22-Jun-2013 7:11:20] x264 [info]: i8 v,h,dc,ddl,ddr,vr,hd,vl,hu: 14% 10% 6% 8% 11% 13% 12% 13% 14%
---[Information] [22-Jun-2013 7:11:20] x264 [info]: i4 v,h,dc,ddl,ddr,vr,hd,vl,hu: 15% 10% 4% 7% 13% 14% 13% 10% 13%
---[Information] [22-Jun-2013 7:11:20] x264 [info]: i8c dc,h,v,p: 26% 24% 24% 26%
---[Information] [22-Jun-2013 7:11:20] x264 [info]: Weighted P-Frames: Y:6.3% UV:4.2%
---[Information] [22-Jun-2013 7:11:20] x264 [info]: ref P L0: 51.5% 5.5% 17.9% 7.5% 5.1% 3.8% 2.9% 1.7% 1.3% 1.1% 0.9% 0.7% 0.1% 0.0%
---[Information] [22-Jun-2013 7:11:20] x264 [info]: ref B L0: 79.4% 12.4% 3.5% 1.6% 1.1% 0.8% 0.6% 0.3% 0.3% 0.1% 0.1%
---[Information] [22-Jun-2013 7:11:20] x264 [info]: ref B L1: 94.3% 5.7%
---[Information] [22-Jun-2013 7:11:20] x264 [info]: kb/s:2053.70
---[Information] [22-Jun-2013 7:11:20] encoded 126583 frames, 6.69 fps, 2053.70 kb/s
--

MediaInfo по Сериям

General
Unique ID : 229914542357348217444825744181205771642 (0xACF7EE201EB0537390943F331F2DA57A)
Complete name : The 10th Kingdom_2000_DVDRip-AVC_Part_1_.mkv
Format : Matroska
Format version : Version 4 / Version 2
File size : 1.59 GiB
Duration : 1h 25mn
Overall bit rate : 2 656 Kbps
Encoded date : UTC 2013-06-22 22:37:49
Writing application : mkvmerge v6.2.0 ('Promised Land') built on Apr 28 2013 12:22:01
Writing library : libebml v1.3.0 + libmatroska v1.4.0
Video
ID : 1
Format : AVC
Format/Info : Advanced Video Codec
Format profile : High@L4.1
Format settings, CABAC : Yes
Format settings, ReFrames : 12 frames
Codec ID : V_MPEG4/ISO/AVC
Duration : 1h 25mn
Bit rate : 2 014 Kbps
Width : 712 pixels
Height : 568 pixels
Display aspect ratio : 4:3
Original display aspect ratio : 4:3
Frame rate mode : Constant
Frame rate : 25.000 fps
Color space : YUV
Chroma subsampling : 4:2:0
Bit depth : 8 bits
Scan type : Progressive
Bits/(Pixel*Frame) : 0.199
Stream size : 1.17 GiB (74%)
Title : The 10th Kingdom_2000_DVDRip-AVC_Part_1_ripped_by_rjhlb777
Writing library : x264 core 133 r2334 a3ac64b
Encoding settings : cabac=1 / ref=12 / deblock=1:-3:-3 / analyse=0x3:0x133 / me=umh / subme=11 / psy=1 / psy_rd=1.00:0.25 / mixed_ref=0 / me_range=32 / chroma_me=1 / trellis=2 / 8x8dct=1 / cqm=0 / deadzone=6,6 / fast_pskip=0 / chroma_qp_offset=-4 / threads=6 / lookahead_threads=1 / sliced_threads=0 / nr=0 / decimate=0 / interlaced=0 / bluray_compat=0 / constrained_intra=0 / bframes=12 / b_pyramid=2 / b_adapt=2 / b_bias=0 / direct=3 / weightb=1 / open_gop=0 / weightp=2 / keyint=250 / keyint_min=25 / scenecut=40 / intra_refresh=0 / rc_lookahead=60 / rc=2pass / mbtree=0 / bitrate=2014 / ratetol=1.0 / qcomp=0.80 / qpmin=0 / qpmax=69 / qpstep=4 / cplxblur=20.0 / qblur=0.5 / vbv_maxrate=62500 / vbv_bufsize=78125 / nal_hrd=none / ip_ratio=1.10 / pb_ratio=1.10 / aq=1:0.50
Language : English
Default : Yes
Forced : No
Audio #1
ID : 2
Format : AC-3
Format/Info : Audio Coding 3
Mode extension : CM (complete main)
Format settings, Endianness : Big
Codec ID : A_AC3
Duration : 1h 25mn
Bit rate mode : Constant
Bit rate : 448 Kbps
Channel(s) : 6 channels
Channel positions : Front: L C R, Side: L R, LFE
Sampling rate : 48.0 KHz
Bit depth : 16 bits
Compression mode : Lossy
Stream size : 274 MiB (17%)
Title : MVO_"CP Digital"
Language : Russian
Default : Yes
Forced : No
Audio #2
ID : 3
Format : AC-3
Format/Info : Audio Coding 3
Mode extension : CM (complete main)
Format settings, Endianness : Big
Codec ID : A_AC3
Duration : 1h 25mn
Bit rate mode : Constant
Bit rate : 192 Kbps
Channel(s) : 2 channels
Channel positions : Front: L R
Sampling rate : 48.0 KHz
Bit depth : 16 bits
Compression mode : Lossy
Stream size : 118 MiB (7%)
Title : Original
Language : English
Default : No
Forced : No
Text
ID : 4
Format : SSA
Codec ID : S_TEXT/SSA
Codec ID/Info : Sub Station Alpha
Compression mode : Lossless
Language : Russian
Default : No
Forced : No
Menu
00:00:00.000 : en:Chapter 1
00:02:41.120 : en:Chapter 2
00:06:20.560 : en:Chapter 3
00:11:53.880 : en:Chapter 4
00:17:04.320 : en:Chapter 5
00:23:17.680 : en:Chapter 6
00:27:59.200 : en:Chapter 7
00:32:42.120 : en:Chapter 8
00:35:40.240 : en:Chapter 9
00:39:24.360 : en:Chapter 10
00:43:13.680 : en:Chapter 11
00:48:48.040 : en:Chapter 12
00:51:56.280 : en:Chapter 13
00:56:28.400 : en:Chapter 14
00:59:46.880 : en:Chapter 15
01:06:30.400 : en:Chapter 16
01:09:54.240 : en:Chapter 17
01:12:24.000 : en:Chapter 18
01:16:21.120 : en:Chapter 19
01:20:22.920 : en:Chapter 20
01:24:46.040 : en:Chapter 21--General
Unique ID : 230393590216026559940987640384595131631 (0xAD54310228B017F3B9651C8DCE2F7CEF)
Complete name : The 10th Kingdom_2000_DVDRip-AVC_Part_2_.mkv
Format : Matroska
Format version : Version 4 / Version 2
File size : 1.59 GiB
Duration : 1h 24mn
Overall bit rate : 2 691 Kbps
Encoded date : UTC 2013-06-22 22:50:44
Writing application : mkvmerge v6.2.0 ('Promised Land') built on Apr 28 2013 12:22:01
Writing library : libebml v1.3.0 + libmatroska v1.4.0
Video
ID : 1
Format : AVC
Format/Info : Advanced Video Codec
Format profile : High@L4.1
Format settings, CABAC : Yes
Format settings, ReFrames : 12 frames
Codec ID : V_MPEG4/ISO/AVC
Duration : 1h 24mn
Bit rate : 2 048 Kbps
Width : 712 pixels
Height : 568 pixels
Display aspect ratio : 4:3
Original display aspect ratio : 4:3
Frame rate mode : Constant
Frame rate : 25.000 fps
Color space : YUV
Chroma subsampling : 4:2:0
Bit depth : 8 bits
Scan type : Progressive
Bits/(Pixel*Frame) : 0.203
Stream size : 1.18 GiB (74%)
Title : The 10th Kingdom_2000_DVDRip-AVC_Part_2_ripped_by_rjhlb777
Writing library : x264 core 133 r2334 a3ac64b
Encoding settings : cabac=1 / ref=12 / deblock=1:-3:-3 / analyse=0x3:0x133 / me=umh / subme=11 / psy=1 / psy_rd=1.00:0.25 / mixed_ref=0 / me_range=32 / chroma_me=1 / trellis=2 / 8x8dct=1 / cqm=0 / deadzone=6,6 / fast_pskip=0 / chroma_qp_offset=-4 / threads=6 / lookahead_threads=1 / sliced_threads=0 / nr=0 / decimate=0 / interlaced=0 / bluray_compat=0 / constrained_intra=0 / bframes=12 / b_pyramid=2 / b_adapt=2 / b_bias=0 / direct=3 / weightb=1 / open_gop=0 / weightp=2 / keyint=250 / keyint_min=25 / scenecut=40 / intra_refresh=0 / rc_lookahead=60 / rc=2pass / mbtree=0 / bitrate=2048 / ratetol=1.0 / qcomp=0.80 / qpmin=0 / qpmax=69 / qpstep=4 / cplxblur=20.0 / qblur=0.5 / vbv_maxrate=62500 / vbv_bufsize=78125 / nal_hrd=none / ip_ratio=1.10 / pb_ratio=1.10 / aq=1:0.50
Language : English
Default : Yes
Forced : No
Audio #1
ID : 2
Format : AC-3
Format/Info : Audio Coding 3
Mode extension : CM (complete main)
Format settings, Endianness : Big
Codec ID : A_AC3
Duration : 1h 24mn
Bit rate mode : Constant
Bit rate : 448 Kbps
Channel(s) : 6 channels
Channel positions : Front: L C R, Side: L R, LFE
Sampling rate : 48.0 KHz
Bit depth : 16 bits
Compression mode : Lossy
Stream size : 271 MiB (17%)
Title : MVO_"CP Digital"
Language : Russian
Default : Yes
Forced : No
Audio #2
ID : 3
Format : AC-3
Format/Info : Audio Coding 3
Mode extension : CM (complete main)
Format settings, Endianness : Big
Codec ID : A_AC3
Duration : 1h 24mn
Bit rate mode : Constant
Bit rate : 192 Kbps
Channel(s) : 2 channels
Channel positions : Front: L R
Sampling rate : 48.0 KHz
Bit depth : 16 bits
Compression mode : Lossy
Stream size : 116 MiB (7%)
Title : Original
Language : English
Default : No
Forced : No
Text
ID : 4
Format : SSA
Codec ID : S_TEXT/SSA
Codec ID/Info : Sub Station Alpha
Compression mode : Lossless
Language : Russian
Default : No
Forced : No
Menu
00:00:00.000 : en:Chapter 1
00:03:05.560 : en:Chapter 2
00:07:29.200 : en:Chapter 3
00:15:02.120 : en:Chapter 4
00:18:45.200 : en:Chapter 5
00:22:21.000 : en:Chapter 6
00:24:36.720 : en:Chapter 7
00:30:15.760 : en:Chapter 8
00:34:30.560 : en:Chapter 9
00:36:55.120 : en:Chapter 10
00:39:09.800 : en:Chapter 11
00:41:14.600 : en:Chapter 12
00:48:26.200 : en:Chapter 13
00:53:25.720 : en:Chapter 14
01:00:47.720 : en:Chapter 15
01:05:10.840 : en:Chapter 16
01:10:42.880 : en:Chapter 17
01:13:16.520 : en:Chapter 18
01:18:05.640 : en:Chapter 19
01:20:28.120 : en:Chapter 20
01:23:40.000 : en:Chapter 21--General
Unique ID : 185975873498649978938122257546852451030 (0x8BE9A67EADB9ACF7B937A329DFE842D6)
Complete name : The 10th Kingdom_2000_DVDRip-AVC_Part_3_.mkv
Format : Matroska
Format version : Version 4 / Version 2
File size : 1.59 GiB
Duration : 1h 25mn
Overall bit rate : 2 669 Kbps
Encoded date : UTC 2013-06-22 23:02:07
Writing application : mkvmerge v6.2.0 ('Promised Land') built on Apr 28 2013 12:22:01
Writing library : libebml v1.3.0 + libmatroska v1.4.0
Video
ID : 1
Format : AVC
Format/Info : Advanced Video Codec
Format profile : High@L4.1
Format settings, CABAC : Yes
Format settings, ReFrames : 12 frames
Codec ID : V_MPEG4/ISO/AVC
Duration : 1h 25mn
Bit rate : 2 027 Kbps
Width : 712 pixels
Height : 568 pixels
Display aspect ratio : 4:3
Original display aspect ratio : 4:3
Frame rate mode : Constant
Frame rate : 25.000 fps
Color space : YUV
Chroma subsampling : 4:2:0
Bit depth : 8 bits
Scan type : Progressive
Bits/(Pixel*Frame) : 0.200
Stream size : 1.18 GiB (74%)
Title : The 10th Kingdom_2000_DVDRip-AVC_Part_3_ripped_by_rjhlb777
Writing library : x264 core 133 r2334 a3ac64b
Encoding settings : cabac=1 / ref=12 / deblock=1:-3:-3 / analyse=0x3:0x133 / me=umh / subme=11 / psy=1 / psy_rd=1.00:0.25 / mixed_ref=0 / me_range=32 / chroma_me=1 / trellis=2 / 8x8dct=1 / cqm=0 / deadzone=6,6 / fast_pskip=0 / chroma_qp_offset=-4 / threads=6 / lookahead_threads=1 / sliced_threads=0 / nr=0 / decimate=0 / interlaced=0 / bluray_compat=0 / constrained_intra=0 / bframes=12 / b_pyramid=2 / b_adapt=2 / b_bias=0 / direct=3 / weightb=1 / open_gop=0 / weightp=2 / keyint=250 / keyint_min=25 / scenecut=40 / intra_refresh=0 / rc_lookahead=60 / rc=2pass / mbtree=0 / bitrate=2027 / ratetol=1.0 / qcomp=0.80 / qpmin=0 / qpmax=69 / qpstep=4 / cplxblur=20.0 / qblur=0.5 / vbv_maxrate=62500 / vbv_bufsize=78125 / nal_hrd=none / ip_ratio=1.10 / pb_ratio=1.10 / aq=1:0.50
Language : English
Default : Yes
Forced : No
Audio #1
ID : 2
Format : AC-3
Format/Info : Audio Coding 3
Mode extension : CM (complete main)
Format settings, Endianness : Big
Codec ID : A_AC3
Duration : 1h 25mn
Bit rate mode : Constant
Bit rate : 448 Kbps
Channel(s) : 6 channels
Channel positions : Front: L C R, Side: L R, LFE
Sampling rate : 48.0 KHz
Bit depth : 16 bits
Compression mode : Lossy
Stream size : 273 MiB (17%)
Title : MVO_"CP Digital"
Language : Russian
Default : Yes
Forced : No
Audio #2
ID : 3
Format : AC-3
Format/Info : Audio Coding 3
Mode extension : CM (complete main)
Format settings, Endianness : Big
Codec ID : A_AC3
Duration : 1h 25mn
Bit rate mode : Constant
Bit rate : 192 Kbps
Channel(s) : 2 channels
Channel positions : Front: L R
Sampling rate : 48.0 KHz
Bit depth : 16 bits
Compression mode : Lossy
Stream size : 117 MiB (7%)
Title : Original
Language : English
Default : No
Forced : No
Text
ID : 4
Format : SSA
Codec ID : S_TEXT/SSA
Codec ID/Info : Sub Station Alpha
Compression mode : Lossless
Language : Russian
Default : No
Forced : No
Menu
00:00:00.000 : en:Chapter 1
00:03:27.400 : en:Chapter 2
00:07:05.800 : en:Chapter 3
00:11:32.560 : en:Chapter 4
00:16:19.600 : en:Chapter 5
00:19:50.720 : en:Chapter 6
00:22:52.200 : en:Chapter 7
00:27:30.400 : en:Chapter 8
00:31:58.720 : en:Chapter 9
00:35:11.120 : en:Chapter 10
00:40:07.200 : en:Chapter 11
00:43:31.360 : en:Chapter 12
00:49:22.880 : en:Chapter 13
00:54:43.960 : en:Chapter 14
00:58:29.920 : en:Chapter 15
01:00:35.240 : en:Chapter 16
01:05:12.640 : en:Chapter 17
01:09:53.720 : en:Chapter 18
01:16:39.840 : en:Chapter 19
01:20:35.920 : en:Chapter 20
01:24:21.600 : en:Chapter 21--General
Unique ID : 254743398936515047302878587945006547107 (0xBFA5CB448BD2D0C9B6ABDD28B86640A3)
Complete name : The 10th Kingdom_2000_DVDRip-AVC_Part_4_.mkv
Format : Matroska
Format version : Version 4 / Version 2
File size : 1.59 GiB
Duration : 1h 24mn
Overall bit rate : 2 691 Kbps
Encoded date : UTC 2013-06-22 23:11:50
Writing application : mkvmerge v6.2.0 ('Promised Land') built on Apr 28 2013 12:22:01
Writing library : libebml v1.3.0 + libmatroska v1.4.0
Video
ID : 1
Format : AVC
Format/Info : Advanced Video Codec
Format profile : High@L4.1
Format settings, CABAC : Yes
Format settings, ReFrames : 12 frames
Codec ID : V_MPEG4/ISO/AVC
Duration : 1h 24mn
Bit rate : 2 049 Kbps
Width : 712 pixels
Height : 568 pixels
Display aspect ratio : 4:3
Original display aspect ratio : 4:3
Frame rate mode : Constant
Frame rate : 25.000 fps
Color space : YUV
Chroma subsampling : 4:2:0
Bit depth : 8 bits
Scan type : Progressive
Bits/(Pixel*Frame) : 0.203
Stream size : 1.18 GiB (74%)
Title : The 10th Kingdom_2000_DVDRip-AVC_Part_4_ripped_by_rjhlb777
Writing library : x264 core 133 r2334 a3ac64b
Encoding settings : cabac=1 / ref=12 / deblock=1:-3:-3 / analyse=0x3:0x133 / me=umh / subme=11 / psy=1 / psy_rd=1.00:0.25 / mixed_ref=0 / me_range=32 / chroma_me=1 / trellis=2 / 8x8dct=1 / cqm=0 / deadzone=6,6 / fast_pskip=0 / chroma_qp_offset=-4 / threads=6 / lookahead_threads=1 / sliced_threads=0 / nr=0 / decimate=0 / interlaced=0 / bluray_compat=0 / constrained_intra=0 / bframes=12 / b_pyramid=2 / b_adapt=2 / b_bias=0 / direct=3 / weightb=1 / open_gop=0 / weightp=2 / keyint=250 / keyint_min=25 / scenecut=40 / intra_refresh=0 / rc_lookahead=60 / rc=2pass / mbtree=0 / bitrate=2049 / ratetol=1.0 / qcomp=0.80 / qpmin=0 / qpmax=69 / qpstep=4 / cplxblur=20.0 / qblur=0.5 / vbv_maxrate=62500 / vbv_bufsize=78125 / nal_hrd=none / ip_ratio=1.10 / pb_ratio=1.10 / aq=1:0.50
Language : English
Default : Yes
Forced : No
Audio #1
ID : 2
Format : AC-3
Format/Info : Audio Coding 3
Mode extension : CM (complete main)
Format settings, Endianness : Big
Codec ID : A_AC3
Duration : 1h 24mn
Bit rate mode : Constant
Bit rate : 448 Kbps
Channel(s) : 6 channels
Channel positions : Front: L C R, Side: L R, LFE
Sampling rate : 48.0 KHz
Bit depth : 16 bits
Compression mode : Lossy
Stream size : 271 MiB (17%)
Title : MVO_"CP Digital"
Language : Russian
Default : Yes
Forced : No
Audio #2
ID : 3
Format : AC-3
Format/Info : Audio Coding 3
Mode extension : CM (complete main)
Format settings, Endianness : Big
Codec ID : A_AC3
Duration : 1h 24mn
Bit rate mode : Constant
Bit rate : 192 Kbps
Channel(s) : 2 channels
Channel positions : Front: L R
Sampling rate : 48.0 KHz
Bit depth : 16 bits
Compression mode : Lossy
Stream size : 116 MiB (7%)
Title : Original
Language : English
Default : No
Forced : No
Text
ID : 4
Format : SSA
Codec ID : S_TEXT/SSA
Codec ID/Info : Sub Station Alpha
Compression mode : Lossless
Language : Russian
Default : No
Forced : No
Menu
00:00:00.000 : en:Chapter 1
00:05:01.920 : en:Chapter 2
00:08:57.000 : en:Chapter 3
00:13:24.800 : en:Chapter 4
00:16:07.360 : en:Chapter 5
00:19:56.400 : en:Chapter 6
00:23:31.680 : en:Chapter 7
00:27:49.480 : en:Chapter 8
00:32:19.160 : en:Chapter 9
00:38:14.440 : en:Chapter 10
00:42:51.120 : en:Chapter 11
00:46:43.200 : en:Chapter 12
00:51:56.080 : en:Chapter 13
00:56:27.080 : en:Chapter 14
01:01:44.920 : en:Chapter 15
01:04:54.200 : en:Chapter 16
01:08:33.040 : en:Chapter 17
01:12:06.600 : en:Chapter 18
01:17:27.440 : en:Chapter 19
01:20:21.400 : en:Chapter 20
01:23:38.120 : en:Chapter 21--General
Unique ID : 209783697164600189065521569729377181174 (0x9DD2DED3EF1CD6E29DF131FEE1A39DF6)
Complete name : The 10th Kingdom_2000_DVDRip-AVC_Part_5_.mkv
Format : Matroska
Format version : Version 4 / Version 2
File size : 1.59 GiB
Duration : 1h 24mn
Overall bit rate : 2 696 Kbps
Encoded date : UTC 2013-06-22 23:20:18
Writing application : mkvmerge v6.2.0 ('Promised Land') built on Apr 28 2013 12:22:01
Writing library : libebml v1.3.0 + libmatroska v1.4.0
Video
ID : 1
Format : AVC
Format/Info : Advanced Video Codec
Format profile : High@L4.1
Format settings, CABAC : Yes
Format settings, ReFrames : 12 frames
Codec ID : V_MPEG4/ISO/AVC
Duration : 1h 24mn
Bit rate : 2 054 Kbps
Width : 712 pixels
Height : 568 pixels
Display aspect ratio : 4:3
Original display aspect ratio : 4:3
Frame rate mode : Constant
Frame rate : 25.000 fps
Color space : YUV
Chroma subsampling : 4:2:0
Bit depth : 8 bits
Scan type : Progressive
Bits/(Pixel*Frame) : 0.203
Stream size : 1.18 GiB (74%)
Title : The 10th Kingdom_2000_DVDRip-AVC_Part_5_ripped_by_rjhlb777
Writing library : x264 core 133 r2334 a3ac64b
Encoding settings : cabac=1 / ref=12 / deblock=1:-3:-3 / analyse=0x3:0x133 / me=umh / subme=11 / psy=1 / psy_rd=1.00:0.25 / mixed_ref=0 / me_range=32 / chroma_me=1 / trellis=2 / 8x8dct=1 / cqm=0 / deadzone=6,6 / fast_pskip=0 / chroma_qp_offset=-4 / threads=6 / lookahead_threads=1 / sliced_threads=0 / nr=0 / decimate=0 / interlaced=0 / bluray_compat=0 / constrained_intra=0 / bframes=12 / b_pyramid=2 / b_adapt=2 / b_bias=0 / direct=3 / weightb=1 / open_gop=0 / weightp=2 / keyint=250 / keyint_min=25 / scenecut=40 / intra_refresh=0 / rc_lookahead=60 / rc=2pass / mbtree=0 / bitrate=2054 / ratetol=1.0 / qcomp=0.80 / qpmin=0 / qpmax=69 / qpstep=4 / cplxblur=20.0 / qblur=0.5 / vbv_maxrate=62500 / vbv_bufsize=78125 / nal_hrd=none / ip_ratio=1.10 / pb_ratio=1.10 / aq=1:0.50
Language : English
Default : Yes
Forced : No
Audio #1
ID : 2
Format : AC-3
Format/Info : Audio Coding 3
Mode extension : CM (complete main)
Format settings, Endianness : Big
Codec ID : A_AC3
Duration : 1h 24mn
Bit rate mode : Constant
Bit rate : 448 Kbps
Channel(s) : 6 channels
Channel positions : Front: L C R, Side: L R, LFE
Sampling rate : 48.0 KHz
Bit depth : 16 bits
Compression mode : Lossy
Stream size : 270 MiB (17%)
Title : MVO_"CP Digital"
Language : Russian
Default : Yes
Forced : No
Audio #2
ID : 3
Format : AC-3
Format/Info : Audio Coding 3
Mode extension : CM (complete main)
Format settings, Endianness : Big
Codec ID : A_AC3
Duration : 1h 24mn
Bit rate mode : Constant
Bit rate : 192 Kbps
Channel(s) : 2 channels
Channel positions : Front: L R
Sampling rate : 48.0 KHz
Bit depth : 16 bits
Compression mode : Lossy
Stream size : 116 MiB (7%)
Title : Original
Language : English
Default : No
Forced : No
Text
ID : 4
Format : SSA
Codec ID : S_TEXT/SSA
Codec ID/Info : Sub Station Alpha
Compression mode : Lossless
Language : Russian
Default : No
Forced : No
Menu
00:00:00.000 : en:Chapter 1
00:06:13.280 : en:Chapter 2
00:09:48.240 : en:Chapter 3
00:13:01.720 : en:Chapter 4
00:18:10.600 : en:Chapter 5
00:20:40.640 : en:Chapter 6
00:26:51.400 : en:Chapter 7
00:28:20.840 : en:Chapter 8
00:33:48.960 : en:Chapter 9
00:37:55.440 : en:Chapter 10
00:42:58.080 : en:Chapter 11
00:48:01.760 : en:Chapter 12
00:52:25.400 : en:Chapter 13
00:55:49.240 : en:Chapter 14
00:59:56.760 : en:Chapter 15
01:03:13.840 : en:Chapter 16
01:07:54.640 : en:Chapter 17
01:12:39.600 : en:Chapter 18
01:17:11.560 : en:Chapter 19
01:23:29.600 : en:Chapter 20


Смотреть онлайн

[trackeroc.ru].9025.torrent 
Торрент: Зарегистрирован   [ 2015-10-20 14:10 ]

Скачать торрент

41 KB

Статус: проверено
Скачан: 14 раз
Размер: 7.95 GB
 

Admin (20-окт-15)
Похожие торренты
Форум Тема Автор Размер
Квесты , я ищу , Поиск предметов Hidden Object Kingdom Of Aurelia: Mystery Of The Poisoned Dagger Premium Edition / Королевство Аурелия: Тайна Отравленного Кинжала Премиальное издание [P] [RUS / ENG] (2016) HOPE 775 MB
Квесты , я ищу , Поиск предметов Hidden Object Dark Parables 6: Jack and the Sky Kingdom. Collector's Edition / Темные предания 6. Джек и небесное королевство. [P] [RUS / ENG] (2014) HOPE 894 MB
Зарубежные сериалы Королевство / Kingdom (2015) WEB-DLRip (сезон 1-2, серии 1-27 из 30) Admin 14.92 GB
Зарубежные сериалы Последнее Королевство / The Last Kingdom / Сезон: 1 / Серии: 1-8 [2015] NewStudio Admin 5.46 GB

_________________
[Профиль] [ЛС]
Показать сообщения:    
Ответить на тему

Текущее время: Сегодня 14:28

Часовой пояс: GMT + 4



Вы не можете начинать темы
Вы не можете отвечать на сообщения
Вы не можете редактировать свои сообщения
Вы не можете удалять свои сообщения
Вы не можете голосовать в опросах
Вы не можете прикреплять файлы к сообщениям
Вы можете скачивать файлы