Джек Ричер 2: Никогда не возвращайся / Jack Reacher: Never Go Back (2016) WEBRip [Line]

Ответить на тему

Статистика раздачи [Обновить пиров]
Размер:  1.36 GB   |    Зарегистрирован:  13 дней   |    Скачан:  1 раз
Сидов:  23  [  0 KB/s  ]   Личеров:  13  [  0 KB/s  ]   Подробная статистика пиров
   
 
Автор Сообщение

BiOS ®

Стаж: 2 года 9 месяцев

Сообщений: 1830

Откуда: Raccoon City


Пост 22-Окт-2016 13:37

[Цитировать]

Джек Ричер 2: Никогда не возвращайся / Jack Reacher: Never Go Back
«Не уступай, не сдавайся, не возвращайся»
- Производство: Китай, США, Huahua Film & Media Culture, Paramount Pictures, Shanghai Film Group
Жанр: Боевик, Триллер, Криминал
Режиссер: Эдвард Цвик
Продюсер: Том Круз, Дон Грэйнджер, Кристофер МакКуорри
Актеры: Том Круз, Коби Смолдерс, Роберт Неппер, Даника Ярош, Нинджа Н. Деву, Элдис Ходж, Холт МакКэллани, Мэдалин Хорчер, Чейз Савой, Сью-Линн Ансари
Описание:
Экс-военный Джек Ричер приезжает в Вашингтон, чтобы впервые встретиться с майором Сьюзен Тернер, которая возглавила его бывшее подразделение и не раз выручала его в непростых ситуациях. По странному стечению обстоятельств буквально накануне его визита майора арестовывают по обвинению в измене… Ричеру, уверенному в невиновности Сьюзен, предстоит освободить ее и раскрыть заговор, ниточки которого тянутся на самый верх. Стремясь докопаться до правды, он также делает поразительное открытие, способное раз и навсегда изменить его жизнь…
Возраст: 18+ (зрителям, достигшим 18 лет. запрещено для детей)
Рейтинг MPAA: PG-13 (детям до 13 лет просмотр нежелателен)
Дата мировой премьеры: 19 октября 2016
Дата российской премьеры: 20 октября 2016, «Централ Партнершип»
Продолжительность: 01:58:04
Качество видео: WEBRip
Перевод: Дублированный (Чистый звук)
Вид субтитров: Вшитые неотключаемые
Язык субтитров: Корейский
Реклама: Присутствуют голосовые и текстовые вставки рекламы.
Видео: XviD, 720x304, 1445 kbps
Аудио: 48 kHz, AC3 Dolby Digital, 2/0 (L,R) ch, ~192 kbps

Mediainfo:

Код:
Общее
Формат                                   : AVI
Формат/Информация                        : Audio Video Interleave
Размер файла                             : 1,36 Гбайт
Продолжительность                        : 1 ч. 58 м.
Общий поток                              : 1649 Кбит/сек
Программа кодирования                    : VirtualDubMod 1.5.10.2 (build 2540/release)
Библиотека кодирования                   : VirtualDub build 35491/release
Видео
Идентификатор                            : 0
Формат                                   : MPEG-4 Visual
Профиль формата                          : Advanced Simple@L5
Параметр BVOP формата                    : 2
Параметр QPel формата                    : Нет
Параметр GMC формата                     : Без точки перехода
Параметр матрицы формата                 : Default (MPEG)
Идентификатор кодека                     : XVID
Идентификатор кодека/Подсказка           : XviD
Продолжительность                        : 1 ч. 58 м.
Битрейт                                  : 1445 Кбит/сек
Ширина                                   : 720 пикселей
Высота                                   : 304 пикселя
Соотношение сторон                       : 2,35:1
Частота кадров                           : 29,970 (30000/1001) кадров/сек
Цветовое пространство                    : YUV
Субдискретизация насыщенности            : 4:2:0
Битовая глубина                          : 8 бит
Тип развёртки                            : Прогрессивная
Метод сжатия                             : С потерями
Бит/(Пиксели*Кадры)                      : 0.220
Размер потока                            : 1,19 Гбайт (88%)
Библиотека кодирования                   : XviD 1.2.1 (UTC 2008-12-04)
Аудио
Идентификатор                            : 1
Формат                                   : AC-3
Формат/Информация                        : Audio Coding 3
Расширение режима                        : CM (complete main)
Параметр Endianness формата              : Big
Идентификатор кодека                     : 2000
Продолжительность                        : 1 ч. 58 м.
Вид битрейта                             : Постоянный
Битрейт                                  : 192 Кбит/сек
Каналы                                   : 2 канала
Расположение каналов                     : Front: L R
Частота                                  : 48,0 КГц
Частота кадров                           : 31,250 кадров/сек (1536 spf)
Метод сжатия                             : С потерями
Задержка видео                           : 1 мс.
Размер потока                            : 162 Мбайт (12%)
Выравнивание                             : Разделение по промежуткам
Продолжительность промежутка             : 33  мс. (1,00 видеокадр)
Время предзагрузки промежутка            : 500  мс.
-Скриншоты:


Смотреть онлайн


[trackeroc.ru].15993.torrent 
Торрент: Зарегистрирован   [ 2017-01-10 14:33 ]

Скачать торрент

14 KB

Статус: проверено
Скачан: 51 раз
Размер: 1.36 GB
 

Admin (25-окт-16)
Похожие торренты
Форум Тема Автор Размер
Квесты , я ищу , Поиск предметов Hidden Object Dark Parables 6: Jack and the Sky Kingdom. Collector's Edition / Темные предания 6. Джек и небесное королевство. [P] [RUS / ENG] (2014) HOPE 894 MB
Ужасы мистика триллеры Джек Брукс / Jack Brooks: Monster Slayer (2007) DVDRip BiOS 1.37 GB
Боевики Джек Стоун / Бунт / Riot (2015) HDRip Admin 1.37 GB

_________________
[Профиль] [ЛС]
Показать сообщения:    
Ответить на тему

Текущее время: Сегодня 10:51

Часовой пояс: GMT + 4



Вы не можете начинать темы
Вы не можете отвечать на сообщения
Вы не можете редактировать свои сообщения
Вы не можете удалять свои сообщения
Вы не можете голосовать в опросах
Вы не можете прикреплять файлы к сообщениям
Вы можете скачивать файлы