Джуманджи: Зов джунглей / Jumanji: Welcome to the Jungle (2017) WEB-DLRip скачать торрент

Ответить на тему

Статистика раздачи [Обновить пиров]
Размер:  1.46 GB   |    Зарегистрирован:  4 месяца 15 дней   |    Скачан:  3 раза
Сидов:  489  [  0 KB/s  ]   Личеров:  156  [  0 KB/s  ]   Подробная статистика пиров
 
 
 
 
Автор Сообщение

BiOS ®

Стаж: 4 года 3 месяца

Сообщений: 2045

Откуда: Raccoon City


Пост 06-Мар-2018 03:37

[Цитировать]

Джуманджи: Зов джунглей / Jumanji: Welcome to the Jungle
«Осторожно, засосёт»
- Производство: 7 Bucks Productions, Matt Tolmach Productions, Radar Pictures Inc., Sony Pictures Entertainment (SPE)
Жанр: Фэнтези, боевик, комедия, приключения, семейный
Режиссер: Джейк Кэздан
Актеры: Карен Гиллан, Дуэйн Джонсон, Бобби Каннавале, Мисси Пайл, Джек Блэк, Кевин Харт, Мэрибет Монро, Риз Дэрби, Алекс Вулф, Ник Джонас
Описание:
Четверо подростков оказываются внутри игры «Джуманджи». Их ждет схватка с носорогами, черными мамбами, а на каждом шагу будет подстерегать бесконечная череда ловушек и головоломок. Чтобы пройти игру и остаться в живых, им придется перевоплотиться в персонажей игры: робкий и застенчивый Спенсер превращается в отважного и сильного исследователя, здоровяк Фридж - в коротышку, модница и красавица Беттани - в профессора, а неуклюжая и нескладная Марта становится бесстрашной и ловкой амазонкой. Друзьям придется привыкнуть к совершенно новым и таким непривычным для себя ролям и найти дорогу домой.
Возраст: 16+ (зрителям, достигшим 16 лет. запрещено для детей)
Рейтинг MPAA: R (лицам до 13 лет обязательно присутствие взрослого)
Дата мировой премьеры: 5 декабря 2017
Дата российской премьеры: 21 декабря 2017
Продолжительность: 01:59:00
Качество видео: WEB-DLRip
Перевод: Дублированный
Видео: AVI, XviD, 720x304, 1297 kbps
Аудио: AC3, 6 ch, 384 Kbps

MediaInfo:

Код:
Общее
Формат : AVI
Формат/Информация : Audio Video Interleave
Размер файла : 1,46 Гбайт
Продолжительность : 1 ч. 59 м.
Общий поток : 1759 Кбит/сек
Программа кодирования : VirtualDubMod 1.5.10.2 (build 2540/release)
Библиотека кодирования : VirtualDubMod build 2540/release
Видео
Идентификатор : 0
Формат : MPEG-4 Visual
Профиль формата : Advanced Simple@L5
Настройки формата : BVOP1 / Custom Matrix
Параметр BVOP формата : 1
Параметр QPel формата : Нет
Параметр GMC формата : Без точки перехода
Параметр матрицы формата : Выборочная
Идентификатор кодека : XVID
Идентификатор кодека/Подсказка : XviD
Продолжительность : 1 ч. 59 м.
Битрейт : 1297 Кбит/сек
Ширина : 720 пикселей
Высота : 304 пикселя
Соотношение сторон : 2,35:1
Частота кадров : 23,976 (24000/1001) кадра/сек
Цветовое пространство : YUV
Субдискретизация насыщенности : 4:2:0
Битовая глубина : 8 бит
Тип развёртки : Прогрессивная
Метод сжатия : С потерями
Бит/(Пиксели*Кадры) : 0.247
Размер потока : 1,08 Гбайт (74%)
Библиотека кодирования : XviD 73
Аудио
Идентификатор : 1
Формат : AC-3
Формат/Информация : Audio Coding 3
Идентификатор кодека : 2000
Продолжительность : 1 ч. 59 м.
Вид битрейта : Постоянный
Битрейт : 384 Кбит/сек
Каналы : 6 каналов
Расположение каналов : Front: L C R, Side: L R, LFE
Частота : 48,0 КГц
Частота кадров : 31,250 кадров/сек (1536 SPF)
Битовая глубина : 16 бит
Метод сжатия : С потерями
Размер потока : 327 Мбайт (22%)
Выравнивание : Разделение по промежуткам
ServiceKind/String : Complete Main
-Скриншоты:


Смотреть онлайн


[trackeroc.ru].24295.torrent 
Торрент: Зарегистрирован   [ 2018-03-06 03:37 ]

Скачать торрент

15 KB

Статус: проверено
Скачан: 27 раз
Размер: 1.46 GB
 

Admin (06-мар-18)

Похожие торренты
Форум Тема Автор Размер
Российские сериалы Закон каменных джунглей [сезон 2 серии 1-8 из 8] (2017) Admin 4.45 GB
Приключения Книга джунглей / The Jungle Book (2016) DVDRip [Line] BiOS 1.46 GB
Приключения Книга джунглей / The Jungle Book [2016] HDRip | Line Admin 1.45 GB
[Профиль] [ЛС]
Показать сообщения:    
Ответить на тему

Текущее время: Сегодня 21:24

Часовой пояс: GMT + 4



Вы не можете начинать темы
Вы не можете отвечать на сообщения
Вы не можете редактировать свои сообщения
Вы не можете удалять свои сообщения
Вы не можете голосовать в опросах
Вы не можете прикреплять файлы к сообщениям
Вы можете скачивать файлы