Дневники вампира / The Vampire Diaries / Сезон: 2 / Серии: 1-22 из 22 скачать торрент

Ответить на тему

Статистика раздачи [Обновить пиров]
Размер:  16.01 GB   |    Зарегистрирован:  2 года 2 месяца   |    Скачан:  0 раз

Полного источника не было: Никогда

 
   
 
 
 
Автор Сообщение

BiOS ®

Стаж: 3 года 6 месяцев

Сообщений: 2009

Откуда: Raccoon City


Пост 11-Авг-2015 19:05

[Цитировать]

-Дневники вампира / The Vampire Diaries- Год выпуска: 2010
Страна: США | USA
Жанр: ужасы, фэнтези, драма, мелодрама
Продолжительность: 00:43:00
Перевод:

Профессиональный (многоголосый закадровый) LostFilm
Субтитры: английские полные-Режиссёр: Маркос Сига | Marcos Siega
В ролях: Нина Добрев, Пол Уэсли, Иен Сомерхолдер, Стивен Р. МакКуин, Катерина Грэхэм, Кэндис Аккола, Зак Рериг, Сара Каннинг, Майкл Тревино, Мэттью Дэвис, Маргарит МакИнтайр, Малез Джоу.
Описание: Появление подлой Кетрин в Мистик Фолс бросает свет на любовный треугольник между Стефаном, Деймоном и Еленой. Она вновь начинает плести интриги между братьями Сальваторе, впутывая Елену Гилберт в события прошлых лет. Ей удаётся рассорить Стефана и Дэймона между собой. Мэр Локвуд — мёртв: странное приспособление подействовало на него и его сына Тайлера. Тайлеру удаётся спастись, а вот его отца ждала суровая участь — он сгорел, вместе с вампирами. Братья Сальваторе обеспокоены тем, что приспособление подействовало на ныне почившего Локвуда. Позже выясняется, что все мужчины в их роду унаследовали звериный ген, и являются оборотнями. Жители Мистик Фолс должны сделать выбор, прежде чем они станут жертвами надвигающейся опасности. Стефан и Деймон должны сразиться со злом, ещё более сильным, чем они могли себе представить.-Качество: HDRip-AVC by Tamerlan4ik (Исходник | BDRip 1080p)
Формат: MKV | Sample
Видео: 1024x576 (16:9), 23.976 fps, x264@L4.1 ~2070 kbps avg, 0.15 bit/pixel
Аудио: Rus 48 kHz, AC3 Dolby Digital, 3/2 (L,C,R,l,r) + LFE ch, ~384.00 kbps avg | LostFilm

Медиаинфо

Format : Matroska
File size : 746 MiB
Duration : 41mn 51s
Overall bit rate : 2 490 Kbps
Movie name : The Vampire Diaries (2010) S02E01 – The Return / Возвращение
Encoded date : UTC 2012-04-13 21:15:09
Writing application : mkvmerge v5.4.0 ('Piper') built on Mar 10 2012 13:34:39
Writing library : libebml v1.2.3 + libmatroska v1.3.0
Video
ID : 1
Format : AVC
Format/Info : Advanced Video Codec
Format profile : High@L4.1
Format settings, CABAC : Yes
Format settings, ReFrames : 8 frames
Codec ID : V_MPEG4/ISO/AVC
Duration : 41mn 51s
Bit rate : 2 104 Kbps
Width : 1 024 pixels
Height : 576 pixels
Display aspect ratio : 16:9
Frame rate : 23.976 fps
Color space : YUV
Chroma subsampling : 4:2:0
Bit depth : 8 bits
Scan type : Progressive
Bits/(Pixel*Frame) : 0.149
Stream size : 616 MiB (83%)
Title : 1024x576 (16:9) 23.976fps ~2070kbps (0.145bpp); BDRip-AVC
Writing library : x264 core 92 r1510 33d382a
Encoding settings : cabac=1 / ref=8 / deblock=1:-2:-1 / analyse=0x3:0x113 / me=umh / subme=9 / psy=1 / psy_rd=1.00:0.20 / mixed_ref=1 / me_range=26 / chroma_me=1 / trellis=2 / 8x8dct=1 / cqm=0 / deadzone=21,11 / fast_pskip=0 / chroma_qp_offset=-3 / threads=3 / sliced_threads=0 / nr=0 / decimate=0 / interlaced=0 / constrained_intra=0 / bframes=8 / b_pyramid=2 / b_adapt=2 / b_bias=0 / direct=3 / wpredb=1 / wpredp=2 / keyint=250 / keyint_min=25 / scenecut=40 / intra_refresh=0 / rc_lookahead=60 / rc=2pass / mbtree=1 / bitrate=2104 / ratetol=1.0 / qcomp=0.60 / qpmin=10 / qpmax=51 / qpstep=4 / cplxblur=20.0 / qblur=0.5 / ip_ratio=1.40 / aq=1:1.00
Language : English
Audio
ID : 2
Format : AC-3
Format/Info : Audio Coding 3
Mode extension : CM (complete main)
Codec ID : A_AC3
Duration : 41mn 51s
Bit rate mode : Constant
Bit rate : 384 Kbps
Channel(s) : 2 channels
Channel positions : Front: L R
Sampling rate : 48.0 KHz
Bit depth : 16 bits
Stream size : 115 MiB (15%)
Title : 48 kHz, AC3 Dolby Digital, 3/2 (L,C,R,l,r) + LFE ch, ~384.00kbps [MVO LostFilm]
Language : Russian
Text
ID : 3
Format : UTF-8
Codec ID : S_TEXT/UTF8
Codec ID/Info : UTF-8 Plain Text
Title : English, SRT
Language : English

Скриншоты

Список серий

01: Возвращение | The Return
02: Прекрасный новый мир | Brave New World
03: Восход дурной луны | Bad Moon Rising
04: Дорога памяти | Memory Lane
05: Убить или быть убитым | Kill Or Be Killed
06: План Б | Plan B
07: Маскарад | Masquerade
08: Роза | Rose
09: Катерина | Katerina
10: Жертва | The Sacrifice
11: При свете луны | By the Light of the Moon
12: Падение | The Descent
13: Проблемы с отцом | Daddy Issues
14: Плачущий волк | Crying Wolf
15: Званый ужин | The Dinner Party
16: Незваная гостья | The House Guest
17: Знай своего врага | Know Thy Enemy
18: Последний танец | The Last Dance
19: Клаус | Klaus
20: Последний день | The Last Day
21: И взойдет солнце | The Sun Also Rises
22: Пока я лежу умирая | As I Lay Dying


Смотреть онлайн


[trackeroc.ru].7449.torrent 
Торрент: Зарегистрирован   [ 2015-08-11 19:08 ]

Скачать торрент

82 KB

Статус: проверено
Скачан: 36 раз
Размер: 16.01 GB
 

Admin (11-авг-15), Angel (11-авг-15)
Похожие торренты
Форум Тема Автор Размер
Зарубежные сериалы Дневники Вампира / The Vampire Diaries [сезон 8 серии 1-16 из 16] (2016) Admin 7.33 GB
Зарубежные сериалы Дневники Вампира / The Vampire Diaries (2015) HDTVRip (сезон 7, серии 1-22) LostFilm Admin 8.29 GB
Зарубежные сериалы Дневники вампира / The Vampire Diaries / Сезон: 5 / Серии: 1-22 из 22 BiOS 18.19 GB
Зарубежные сериалы Дневники вампира / The Vampire Diaries / Сезон: 4 / Серии: 1-23 из 23 BiOS 19.14 GB
Зарубежные сериалы Дневники вампира / The Vampire Diaries / Сезон: 3 / Серии: 1-22 из 22 BiOS 18.4 GB

_________________
[Профиль] [ЛС]
Показать сообщения:    
Ответить на тему

Текущее время: Сегодня 15:38

Часовой пояс: GMT + 4



Вы не можете начинать темы
Вы не можете отвечать на сообщения
Вы не можете редактировать свои сообщения
Вы не можете удалять свои сообщения
Вы не можете голосовать в опросах
Вы не можете прикреплять файлы к сообщениям
Вы можете скачивать файлы