Дневники вампира / The Vampire Diaries / Сезон: 3 / Серии: 1-22 из 22

Ответить на тему

Статистика раздачи [Обновить пиров]
Размер:  18.4 GB   |    Зарегистрирован:  1 год 3 месяца   |    Скачан:  0 раз

Полного источника не было: Никогда

 
 
 
 
Автор Сообщение

BiOS ®

Стаж: 2 года 7 месяцев

Сообщений: 1732

Откуда: Raccoon City


Пост 11-Авг-2015 19:09

[Цитировать]

-Дневники вампира / The Vampire Diaries- Год выпуска: 2011
Страна: США
Жанр: ужасы, фэнтези, драма, мелодрама
Продолжительность: 00:43:00
Перевод:

Профессиональный (многоголосый закадровый) LostFilm
Субтитры: русские (полные), английские (полные)-Режиссёр: Маркос Сига / Marcos Siega
В ролях: Нина Добрев, Пол Уэсли, Иен Сомерхолдер, Стивен Р. МакКуин, Катерина Грэхэм, Кэндис Аккола, Зак Рериг, Сара Каннинг, Майкл Тревино, Мэттью Дэвис, Маргарит МакИнтайр, Малез Джоу.
Описание: Прошло всего четыре месяца после трагической аварии, в которой погибли их родители, и 17-летняя Елена Гилберт и ее 15-летний брат Джереми все еще пытаются оправиться от потери и вернуться к нормальной жизни. Елена всегда была отличной ученицей, красивой и популярной девушкой в школе, но теперь ей очень тяжело скрывать свою печаль от внешнего мира. В начале учебного года внимание Елены и ее друзей привлекает новый ученик, загадочный и красивый Стефан Сальваторе. Стефан и Елена тут же чувствуют взаимную симпатию, но Елена даже не подозревает, что Стефан - вампир, которому уже сотни лет, и который старается мирно жить среди людей, несмотря на то, что его брат, Дэймон - воплощение вампирской жестокости и кровожадности. Теперь два брата-вампира - один добрый, другой злой - ведут борьбу за души Елены, ее друзей и других жителей городка Мистик Фоллз.-Качество: WEB-DLRip | Формат: AVI | Рип: k-marat-s | Субтитры: Мекс
Видео: 720x400 (1.80:1), 23.976 fps, XviD build 64 ~2040 kbps avg, 0.29 bit/pixel
Аудио 1: Russian 48 kHz, AC3 Dolby Digital, 3/2 (L,C,R,l,r) + LFE ch, ~384.00 kbps avg | LostFilm
Аудио 2: English 48 kHz, AC3 Dolby Digital, 3/2 (L,C,R,l,r) + LFE ch, ~384.00 kbps avg | Original

Сэмпл

Сэмпл

Скриншоты

Медиаинфо

Общее
Формат : AVI
Формат/Информация : Audio Video Interleave
Размер файла : 848 Мбайт
Продолжительность : 41 м.
Общий поток : 2827 Кбит/сек
Программа кодирования : VirtualDubModRus 1.5.10.2 (build 2542/release)
Библиотека кодирования : VirtualDubMod build 2542/release
Видео
Идентификатор : 0
Формат : MPEG-4 Visual
Профиль формата : Advanced Simple@L5
Параметр BVOP формата : 1
Параметр QPel формата : Нет
Параметр GMC формата : Без точки перехода
Параметр матрицы формата : Default (MPEG)
Идентификатор кодека : XVID
Идентификатор кодека/Подсказка : XviD
Продолжительность : 41 м.
Битрейт : 2045 Кбит/сек
Ширина : 720 пикселей
Высота : 400 пикселей
Соотношение сторон : 16:9
Частота кадров : 23,976 кадра/сек
Цветовое пространство : YUV
Субдискретизация насыщенности : 4:2:0
Битовая глубина : 8 бит
Тип развёртки : Прогрессивная
Метод сжатия : С потерями
Бит/(Пиксели*Кадры) : 0.296
Размер потока : 613 Мбайт (72%)
Библиотека кодирования : XviD 64
Аудио #1
Идентификатор : 1
Формат : AC-3
Формат/Информация : Audio Coding 3
Расширение режима : CM (complete main)
Параметр Endianness формата : Big
Идентификатор кодека : 2000
Продолжительность : 41 м.
Вид битрейта : Постоянный
Битрейт : 384 Кбит/сек
Каналы : 6 каналов
Расположение каналов : Front: L C R, Side: L R, LFE
Частота : 48,0 КГц
Битовая глубина : 16 бит
Метод сжатия : С потерями
Размер потока : 115 Мбайт (14%)
Выравнивание : Разделение по промежуткам
Продолжительность промежутка : 42 мс. (1,00 видеокадр)
Время предзагрузки промежутка : 500 мс.
Аудио #2
Идентификатор : 2
Формат : AC-3
Формат/Информация : Audio Coding 3
Расширение режима : CM (complete main)
Параметр Endianness формата : Big
Идентификатор кодека : 2000
Продолжительность : 41 м.
Вид битрейта : Постоянный
Битрейт : 384 Кбит/сек
Каналы : 6 каналов
Расположение каналов : Front: L C R, Side: L R, LFE
Частота : 48,0 КГц
Битовая глубина : 16 бит
Метод сжатия : С потерями
Размер потока : 115 Мбайт (14%)
Выравнивание : Разделение по промежуткам
Продолжительность промежутка : 42 мс. (1,00 видеокадр)
Время предзагрузки промежутка : 500 мс.

Список серий

01. День рождения (The Birthday)
02. Гибрид (Hybrid)
03. Конец интриги (The End of the Affair)
04. Возмутительное поведение (Disturbing Behavior)
05. Отсчет (The Reckoning)
06. Повеяло молодостью (Smells Like Teen Spirit)
07. Мир призраков (Ghost World)
08. Простые люди (Ordinary People)
09. Бал выпускников (Homecoming)
10. Новая сделка (The New Deal)
11. Наш город (Our Town)
12. Узы, что связывают (The Ties That Bind)
13. Воскрешая мертвецов (Bringing Out The Dead)
14. Опасные связи (Dangerous Liaisons)
15. Все мои дети (All My Children)
16. 1912 (1912)
17. Прорыв (Break On Through)
18. Одно убийство (The Murder of One)
19. Сердце тьмы (Heart of Darkness)
20. Не уходи незамеченным (Do Not Go Gentle)
21. До захода солнца (Before Sunset)
22. Усопшие (The Departed)


Смотреть онлайн

[trackeroc.ru].7450.torrent 
Торрент: Зарегистрирован   [ 2015-08-11 19:12 ]

Скачать торрент

99 KB

Статус: проверено
Скачан: 7 раз
Размер: 18.4 GB
 

Admin (11-авг-15), Angel (11-авг-15)
Похожие торренты
Форум Тема Автор Размер
Зарубежные сериалы Дневники Вампира / The Vampire Diaries (2015) HDTVRip (сезон 7, серии 1-22) LostFilm Admin 8.29 GB
Зарубежные сериалы Дневники вампира / The Vampire Diaries / Сезон: 5 / Серии: 1-22 из 22 BiOS 18.19 GB
Зарубежные сериалы Дневники вампира / The Vampire Diaries / Сезон: 4 / Серии: 1-23 из 23 BiOS 19.14 GB
Зарубежные сериалы Дневники вампира / The Vampire Diaries / Сезон: 2 / Серии: 1-22 из 22 BiOS 16.01 GB

_________________
[Профиль] [ЛС]
Показать сообщения:    
Ответить на тему

Текущее время: Сегодня 07:57

Часовой пояс: GMT + 4



Вы не можете начинать темы
Вы не можете отвечать на сообщения
Вы не можете редактировать свои сообщения
Вы не можете удалять свои сообщения
Вы не можете голосовать в опросах
Вы не можете прикреплять файлы к сообщениям
Вы можете скачивать файлы