Дневники вампира / The Vampire Diaries / Сезон: 5 / Серии: 1-22 из 22

Ответить на тему

Статистика раздачи [Обновить пиров]
Размер:  18.19 GB   |    Зарегистрирован:  1 год 3 месяца   |    Скачан:  0 раз

Полного источника не было: Никогда

 
 
 
 
Автор Сообщение

BiOS ®

Стаж: 2 года 7 месяцев

Сообщений: 1732

Откуда: Raccoon City


Пост 11-Авг-2015 19:16

[Цитировать]

-Дневники вампира / The Vampire Diaries- Год выпуска: 2013
Страна: США | USA
Жанр: ужасы, фэнтези, драма, мелодрама
Продолжительность: 00:43:00
Перевод:

Профессиональный (многоголосый закадровый) LostFilm
Субтитры: русские полные, английские полные
Оригинальная аудиодорожка: английский-Режиссер: Маркос Сига | Marcos Siega
В ролях: Нина Добрев, Пол Уэсли, Иен Сомерхолдер, Стивен Р. МакКуин, Катерина Грэхэм, Кэндис Аккола, Зак Рериг, Сара Каннинг, Майкл Тревино, Мэттью Дэвис, Маргарит МакИнтайр, Малез Джоу.-Описание: После долгого заточения в склепе, Сайлас наконец-то выбрался на волю и сможет показать свое истинное лицо. Все случившиеся в последнее время обстоятельства, заставляют героев покинуть город и податься по своему пути, но вот смогут ли они так легко отделаться от замыслов судьбы. На удивление многих зрителей, одна из любимых героинь Кетрин предстанет перед нами в новом обличии, ей придется отвыкнуть от мысли, что она пятисотлетний вампир - теперь она просто смертный человек. Будут ли продолжаться такие жаркие отношения между Деймоном и Еленой в новом сезоне, какие новые шокирующие тайны хранит семья Сальваторе об этом и многом другом в новом 5 сезоне.-Качество: WEB-DLRip | Формат: AVI | Рип: ЛП и GRiN | Звук: kmarats
Видео: 720x400 (1.80:1), 23.976 fps, XviD build 65 ~2000 kbps avg, 0.29 bit/pixel
Аудио 1: Rus 48 kHz, AC3 Dolby Digital, 3/2 (L,C,R,l,r) + LFE ch, ~384.00 kbps avg | LostFilm
Аудио 2: Eng 48 kHz, AC3 Dolby Digital, 3/2 (L,C,R,l,r) + LFE ch, ~384.00 kbps avg | Original

Медиаинфо

Format : AVI
Format/Info : Audio Video Interleave
File size : 846 MiB
Duration : 42mn 31s
Overall bit rate : 2 782 Kbps
Writing application : VirtualDubModRus 1.5.10.2 (build 2542/release)
Writing library : VirtualDubMod build 2542/release
Video
ID : 0
Format : MPEG-4 Visual
Format profile : Advanced Simple@L5
Format settings, BVOP : Yes
Format settings, QPel : No
Format settings, GMC : No warppoints
Format settings, Matrix : Default (MPEG)
Codec ID : XVID
Codec ID/Hint : XviD
Duration : 42mn 31s
Bit rate : 2 000 Kbps
Width : 720 pixels
Height : 400 pixels
Display aspect ratio : 16:9
Frame rate : 23.976 fps
Color space : YUV
Chroma subsampling : 4:2:0
Bit depth : 8 bits
Scan type : Progressive
Bits/(Pixel*Frame) : 0.290
Stream size : 608 MiB (72%)
Writing library : XviD 65
Audio #1
ID : 1
Format : AC-3
Format/Info : Audio Coding 3
Mode extension : CM (complete main)
Codec ID : 2000
Duration : 42mn 31s
Bit rate mode : Constant
Bit rate : 384 Kbps
Channel(s) : 6 channels
Channel positions : Front: L C R, Side: L R, LFE
Sampling rate : 48.0 KHz
Bit depth : 16 bits
Stream size : 117 MiB (14%)
Alignment : Split accross interleaves
Interleave, duration : 42 ms (1.00 video frame)
Interleave, preload duration : 500 ms
Audio #2
ID : 2
Format : AC-3
Format/Info : Audio Coding 3
Mode extension : CM (complete main)
Codec ID : 2000
Duration : 42mn 31s
Bit rate mode : Constant
Bit rate : 384 Kbps
Channel(s) : 6 channels
Channel positions : Front: L C R, Side: L R, LFE
Sampling rate : 48.0 KHz
Bit depth : 16 bits
Stream size : 117 MiB (14%)
Alignment : Split accross interleaves
Interleave, duration : 42 ms (1.00 video frame)
Interleave, preload duration : 500 ms

Скриншоты

Список серий

01. Я знаю, что вы делали прошлым летом | I Know What You Did Last Summer
02. Правдивая ложь | True Lies
03. Первородный грех | Original Sin
04. По ком звонит колокол | For Whom the Bell Tolls
05. Бал монстров | Monster’s Ball
06. Обращаться с осторожностью | Handle with Care
07. Смерть и девушка | Death and the Maiden
08. Мертвец в колледже | Dead Man on Campus
09. Клетка | The Cell
10. 50 оттенков Грэйсона | Fifty Shades of Grayson
11. 500 лет одиночества | 500 Years of Solitude
12. Дьявол внутри | The Devil Inside
13. Полное затмение сердца | Total Eclipse of the Heart
14. Выхода нет | No Exit
15. Пропавшая девочка | Gone Girl
16. Пока ты спала | While You Were Sleeping
17. Спаси меня | Rescue Me
18. Обитель Зла | Resident Evil
19. Гнев | Man of Fire
20. Что скрывает ложь | What Lies Beneath
21. Земля обетованная | Promised Land
22. Дом | Home


Смотреть онлайн

[trackeroc.ru].7452.torrent 
Торрент: Зарегистрирован   [ 2015-08-11 19:16 ]

Скачать торрент

98 KB

Статус: проверено
Скачан: 7 раз
Размер: 18.19 GB
 

Admin (11-авг-15), Angel (11-авг-15)
Похожие торренты
Форум Тема Автор Размер
Зарубежные сериалы Дневники Вампира / The Vampire Diaries (2015) HDTVRip (сезон 7, серии 1-22) LostFilm Admin 8.29 GB
Зарубежные сериалы Дневники вампира / The Vampire Diaries / Сезон: 4 / Серии: 1-23 из 23 BiOS 19.14 GB
Зарубежные сериалы Дневники вампира / The Vampire Diaries / Сезон: 3 / Серии: 1-22 из 22 BiOS 18.4 GB
Зарубежные сериалы Дневники вампира / The Vampire Diaries / Сезон: 2 / Серии: 1-22 из 22 BiOS 16.01 GB

_________________
[Профиль] [ЛС]
Показать сообщения:    
Ответить на тему

Текущее время: Сегодня 14:23

Часовой пояс: GMT + 4



Вы не можете начинать темы
Вы не можете отвечать на сообщения
Вы не можете редактировать свои сообщения
Вы не можете удалять свои сообщения
Вы не можете голосовать в опросах
Вы не можете прикреплять файлы к сообщениям
Вы можете скачивать файлы