Дочь Бога / Exposed (2016) WEB-DL [H.264/1080p-LQ]

Ответить на тему

Статистика раздачи [Обновить пиров]
Размер:  3.33 GB   |    Зарегистрирован:  10 месяцев 8 дней   |    Скачан:  3 раза

Полного источника не было: 3 часа

 
 
 
 
Автор Сообщение

Admin ®

Стаж: 7 месяцев 14 дней

Сообщений: 4459

Откуда: trackeroc.ru


Пост 02-Фев-2016 00:27

[Цитировать]

Дочь Бога / Exposed - Производство: США, Company Films, Emmett/Furla Films, Fortitude International, Palm-Star Entertainment, Remark Films
Жанр: Драма
Режиссер: Деклан Дэйл
Продюсер: Робин Герлэнд, Ги Малик Линтон, Киану Ривз
Актеры: Ана де Армас, Мира Сорвино, Биг Дэдди Кэйн, Кристофер МакДональд, Лаура Гомез, Melissa Linton, Киану Ривз, Клара Вонг, Майкл Рисполи, Дения Браче
Описание:
С женщиной, которая стала свидетелем чуда, начинают происходить странные вещи. А в это время полицейский детектив пытается разобраться в том, что привело к смерти его напарника.
Рейтинг MPAA: R
Возраст: 18+
Дата мировой премьеры: 22 января 2016
Дата премьеры в России: 7 апреля 2016, «25th Floor Film»

Продолжительность: 01:42:29
Качество видео: WEB-DL
Перевод: Двуголосый закадровый, любительский
Вид субтитров: Вшитые отключаемые
Язык субтитров: Английский
Видео: AVC/H.264, 1920x800 (2.40:1), 3978 kb/s, 23.976 fps
Аудио »1: 48 kHz, AC3 Dolby Digital, 2/0 (L,R) ch, ~192 kbps (Русский)
Аудио »2: 48 kHz, AC3 Dolby Digital, 3/2 (L,C,R,l,r) + LFE ch, ~384 kbps (Оригинал)
Семпл: Скачать

MI

Код:
Общее
Уникальный идентификатор                 : 193661046755990902791601243796988382241 (0x91B1C2CA66511689AC3346E332A24C21)
Полное имя                               : С:Дочь.Бога.2016.WEB-DL.[1080p].mkv
Формат                                   : Matroska
Версия формата                           : Version 2
Размер файла                             : 3,33 Гбайт
Продолжительность                        : 1 ч. 42 м.
Общий поток                              : 4647 Кбит/сек
Название фильма                          : Дочь.Бога.2016.WEB-DL.[1080p].nnm-club
Дата кодирования                         : UTC 2016-02-01 19:32:41
Программа кодирования                    : mkvmerge v8.3.0 ('Over the Horizon') 64bit
Библиотека кодирования                   : libebml v1.3.1 + libmatroska v1.4.2
DURATION                                 : 01:29:22.021000000
NUMBER_OF_FRAMES                         : 664
NUMBER_OF_BYTES                          : 18797
_STATISTICS_WRITING_APP                  : mkvmerge v8.3.0 ('Over the Horizon') 64bit
_STATISTICS_WRITING_DATE_UTC             : 2016-02-01 19:32:41
_STATISTICS_TAGS                         : BPS DURATION NUMBER_OF_FRAMES NUMBER_OF_BYTES
Видео
Идентификатор                            : 1
Формат                                   : AVC
Формат/Информация                        : Advanced Video Codec
Профиль формата                          : High@L4.1
Параметр CABAC формата                   : Да
Параметр ReFrames формата                : 4 кадра
Идентификатор кодека                     : V_MPEG4/ISO/AVC
Продолжительность                        : 1 ч. 42 м.
Битрейт                                  : 3978 Кбит/сек
Номинальный битрейт                      : 4300 Кбит/сек
Ширина                                   : 1904 пикселя
Высота                                   : 800 пикселей
Соотношение сторон                       : 2,40:1
Режим частоты кадров                     : Постоянный
Частота кадров                           : 23,976 кадра/сек
Цветовое пространство                    : YUV
Субдискретизация насыщенности            : 4:2:0
Битовая глубина                          : 8 бит
Тип развёртки                            : Прогрессивная
Бит/(Пиксели*Кадры)                      : 0.109
Размер потока                            : 2,85 Гбайт (86%)
Заголовок                                : Дочь.Бога.2016.WEB-DL.[1080p].nnm-club
Библиотека кодирования                   : x264 core 146 r2538 121396c
Настройки программы                      : cabac=1 / ref=3 / deblock=1:-2:-1 / analyse=0x3:0x133 / me=umh / subme=6 / psy=1 / psy_rd=1.00:0.20 / mixed_ref=1 / me_range=24 / chroma_me=1 / trellis=2 / 8x8dct=1 / cqm=0 / deadzone=21,11 / fast_pskip=1 / chroma_qp_offset=-3 / threads=18 / lookahead_threads=3 / sliced_threads=0 / nr=0 / decimate=1 / interlaced=0 / bluray_compat=0 / constrained_intra=0 / bframes=3 / b_pyramid=2 / b_adapt=2 / b_bias=0 / direct=1 / weightb=1 / open_gop=0 / weightp=2 / keyint=250 / keyint_min=23 / scenecut=40 / intra_refresh=0 / rc_lookahead=60 / rc=abr / mbtree=1 / bitrate=4300 / ratetol=1.0 / qcomp=0.60 / qpmin=0 / qpmax=69 / qpstep=4 / ip_ratio=1.40 / aq=1:1.00
Язык                                     : English
Default                                  : Да
Forced                                   : Нет
DURATION                                 : 01:42:29.737000000
NUMBER_OF_FRAMES                         : 147446
NUMBER_OF_BYTES                          : 3127794062
_STATISTICS_WRITING_APP                  : mkvmerge v8.3.0 ('Over the Horizon') 64bit
_STATISTICS_WRITING_DATE_UTC             : 2016-02-01 19:32:41
_STATISTICS_TAGS                         : BPS DURATION NUMBER_OF_FRAMES NUMBER_OF_BYTES
Аудио #1
Идентификатор                            : 2
Формат                                   : AC-3
Формат/Информация                        : Audio Coding 3
Расширение режима                        : CM (complete main)
Параметр Endianness формата              : Big
Идентификатор кодека                     : A_AC3
Продолжительность                        : 1 ч. 42 м.
Вид битрейта                             : Постоянный
Битрейт                                  : 192 Кбит/сек
Каналы                                   : 2 канала
Расположение каналов                     : Front: L R
Частота                                  : 48,0 КГц
Метод сжатия                             : С потерями
Размер потока                            : 141 Мбайт (4%)
Язык                                     : Russian
Default                                  : Да
Forced                                   : Нет
Аудио #2
Идентификатор                            : 3
Формат                                   : AC-3
Формат/Информация                        : Audio Coding 3
Расширение режима                        : CM (complete main)
Параметр Endianness формата              : Big
Идентификатор кодека                     : A_AC3
Продолжительность                        : 1 ч. 42 м.
Вид битрейта                             : Постоянный
Битрейт                                  : 384 Кбит/сек
Каналы                                   : 6 каналов
Расположение каналов                     : Front: L C R, Side: L R, LFE
Частота                                  : 48,0 КГц
Метод сжатия                             : С потерями
Размер потока                            : 282 Мбайт (8%)
Заголовок                                : Original
Язык                                     : English
Default                                  : Нет
Forced                                   : Нет
Текст
Идентификатор                            : 4
Формат                                   : UTF-8
Идентификатор кодека                     : S_TEXT/UTF8
Идентификатор кодека/Информация          : UTF-8 Plain Text
Язык                                     : English
Default                                  : Нет
Forced                                   : Нет
-Скриншоты:


Смотреть онлайн

[trackeroc.ru].11397.torrent 
Торрент: Зарегистрирован   [ 2016-02-02 00:27 ]

Скачать торрент

17 KB

Статус: проверено
Скачан: 13 раз
Размер: 3.33 GB
 

BiOS (02-фев-16)

_________________
[Профиль] [ЛС]
Показать сообщения:    
Ответить на тему

Текущее время: Сегодня 03:07

Часовой пояс: GMT + 4



Вы не можете начинать темы
Вы не можете отвечать на сообщения
Вы не можете редактировать свои сообщения
Вы не можете удалять свои сообщения
Вы не можете голосовать в опросах
Вы не можете прикреплять файлы к сообщениям
Вы можете скачивать файлы