Дожить до Рассвета / Until Dawn (2015) WEBRip [H.264/1080p-LQ]

Ответить на тему

Статистика раздачи [Обновить пиров]
Скачали
Размер:  6.64 GB   |    Зарегистрирован:  11 месяцев 13 дней   |    Скачан:  5 раз

Полного источника не было: 5 дней

 
 
 
 
Автор Сообщение

BiOS ®

Стаж: 2 года 7 месяцев

Сообщений: 1732

Откуда: Raccoon City


Пост 23-Дек-2015 04:50

[Цитировать]

Дожить до Рассвета / Until Dawn - Производство: Supermassive Games
Жанр: Триллер, Драма, Игровой фильм
Описание:
Кто сумеет дожить до рассвета?
Когда восемь друзей оказываются отрезаны от мира в уединенной горной хижине, реальность очень быстро оборачивается кошмаром, ведь, судя по всему, они там не одни. Страх и напряжение толкают людей на необдуманные действия, когда решаются вопросы жизни и смерти. Любой выбор каждого из восьми героев поневоле, каким бы простым и несущественным он ни казался на первый взгляд, может стать важным звеном уникальной цепи событий, ведущей к непредсказуемому финалу.
Продолжительность: 07:26:10
Качество видео: WEBRip
Перевод: Дублированный
В данном видео присутствует ограничение 18+
Видео: AVC/H.264, 1920х1080, ~1994 Кбит/сек
Аудио: AAC, 2 ch, 126 Кбит/сек, CBR

Mediainfo:

Код:
Формат                                   : MPEG-4
Профиль формата                          : Base Media
Идентификатор кодека                     : isom
Размер файла                             : 6,64 Гбайт
Продолжительность                        : 7 ч. 26 м.
Общий поток                              : 2129 Кбит/сек
Программа кодирования                    : Lavf57.2.100
Видео
Идентификатор                            : 1
Формат                                   : AVC
Формат/Информация                        : Advanced Video Codec
Профиль формата                          : High@L4
Параметр CABAC формата                   : Да
Параметр ReFrames формата                : 3 кадра
Идентификатор кодека                     : avc1
Идентификатор кодека/Информация          : Advanced Video Coding
Продолжительность                        : 7 ч. 26 м.
Битрейт                                  : 1994 Кбит/сек
Ширина                                   : 1920 пикселей
Высота                                   : 1080 пикселей
Соотношение сторон                       : 16:9
Режим частоты кадров                     : Постоянный
Частота кадров                           : 30,000 кадров/сек
Цветовое пространство                    : YUV
Субдискретизация насыщенности            : 4:2:0
Битовая глубина                          : 8 бит
Тип развёртки                            : Прогрессивная
Бит/(Пиксели*Кадры)                      : 0.032
Размер потока                            : 6,21 Гбайт (94%)
Аудио
Идентификатор                            : 2
Формат                                   : AAC
Формат/Информация                        : Advanced Audio Codec
Профиль формата                          : LC
Идентификатор кодека                     : 40
Продолжительность                        : 7 ч. 26 м.
Вид битрейта                             : Постоянный
Битрейт                                  : 126 Кбит/сек
Каналы                                   : 2 канала
Расположение каналов                     : Front: L R
Частота                                  : 44,1 КГц
Метод сжатия                             : С потерями
Размер потока                            : 401 Мбайт (6%)
-Скриншоты:


[trackeroc.ru].10644.torrent 
 СЕРЕБРЯНАЯ РАЗДАЧА! СКАЧАННОЕ ЗАСЧИТЫВАЕТСЯ ТОЛЬКО НАПОЛОВИНУ! 
Торрент: Зарегистрирован   [ 2015-12-23 04:50 ]

Скачать торрент

17 KB

Статус: проверено
Скачан: 62 раз
Размер: 6.64 GB
 

zloitermit (23-дек-15)
Похожие торренты
Форум Тема Автор Размер
Зарубежные сериалы От заката до рассвета / From Dusk Till Dawn (2016) (сезон 3, серии 1-10 из 10) NewStudio Admin 5.38 GB
Зарубежные сериалы От заката до рассвета / From Dusk Till Dawn: The Series (2016) WEB-DLRip (сезон 3, серии 1-6 из 10) LostFilm BiOS 3.23 GB
Зарубежные сериалы От заката до рассвета / From Dusk Till Dawn: The Series (2015) WEB-DLRip (сезон 2, серии 1-10 из 10) LostFilm BiOS 4.5 GB
Зарубежные сериалы От заката до рассвета / From Dusk Till Dawn: The Series (2014) WEB-DLRip (Сезон 1, Серии 1-10 из 10) LostFilm Admin 5.35 GB

_________________
[Профиль] [ЛС]
Показать сообщения:    
Ответить на тему

Текущее время: Сегодня 18:23

Часовой пояс: GMT + 4



Вы не можете начинать темы
Вы не можете отвечать на сообщения
Вы не можете редактировать свои сообщения
Вы не можете удалять свои сообщения
Вы не можете голосовать в опросах
Вы не можете прикреплять файлы к сообщениям
Вы можете скачивать файлы