Достигая невозможного / Gleaming the Cube (1989) DVDRip [H.264]

Ответить на тему

Статистика раздачи [Обновить пиров]
Скачали
Размер:  1.45 GB   |    Зарегистрирован:  3 месяца 15 дней   |    Скачан:  1 раз

Полного источника не было: 3 месяца 9 дней

 
 
 
 
Автор Сообщение

BiOS ®

Стаж: 2 года 7 месяцев

Сообщений: 1733

Откуда: Raccoon City


Пост 01-Ноя-2015 14:59

[Цитировать]

Достигая невозможного / Gleaming the Cube
«All he cared about was Gleaming the Cube...until the night they killed his brother»
- Производство: США / David Foster Productions, Gladden Entertainment
Жанр: Боевик, Драма, Детектив
Режиссер: Грэм Клиффорд
Актеры: Кристиан Слэйтер, Стивен Бауэр, Ричард Херд, Ле Туан, Мин Луонг, Арт Чудабала, Эд Лотер, Миколе Миркурио, Питер Квон, Чарльз Сайферс
Описание:
Захватывающий триллер о тинейджере, помешанном на скейтборде. Он расследует обстоятельства смерти своего сводного брата-вьетнамца, который никак не мог покончить жизнь самоубийством. Он катается по всему «маленькому Сайгону» в поисках главного злодея.
Возраст: 16+ (зрителям, достигшим 16 лет)
Рейтинг MPAA: PG-13 (детям до 13 лет просмотр нежелателен)
Релиз от: Охрана (NNM-CLUB)
Продолжительность: 01:40:31
Качество видео: DVDRip
Перевод: Дублированный (Киностудии им.М.Горького)
Язык субтитров: Русский
Вид субтитров: Вшитые отключаемые
Видео: AVC/H.264, 720x432, ~1685 Kbps
Аудио 1: MP3, 2 ch, 192 Kbps, 48.0 kHz │ Русский
Аудио 2: AC3, 2 ch, 192 Kbps, 48.0 kHz │ Английский

Mediainfo:

Код:
General
Format                                   : Matroska
Format version                           : Version 4 / Version 2
File size                                : 1.45 GiB
Duration                                 : 1h 40mn
Overall bit rate                         : 2 071 Kbps
Encoded date                             : UTC 2016-08-18 21:50:05
Writing application                      : mkvmerge v7.0.0 ('Where We Going') 32bit built on Jun  9 2014 15:08:34
Writing library                          : libebml v1.3.0 + libmatroska v1.4.1
_STATISTICS_WRITING_APP                  : mkvmerge v7.0.0 ('Where We Going') 32bit built on Jun  9 2014 15:08:34
_STATISTICS_WRITING_DATE_UTC             : 2016-08-18 21:50:05
_STATISTICS_TAGS                         : BPS DURATION NUMBER_OF_FRAMES NUMBER_OF_BYTES
DURATION                                 : 01:36:39.956000000
NUMBER_OF_FRAMES                         : 776
NUMBER_OF_BYTES                          : 57888
Video
ID                                       : 1
Format                                   : AVC
Format/Info                              : Advanced Video Codec
Format profile                           : High@L3.1
Format settings, CABAC                   : Yes
Format settings, ReFrames                : 8 frames
Codec ID                                 : V_MPEG4/ISO/AVC
Duration                                 : 1h 40mn
Bit rate                                 : 1 685 Kbps
Width                                    : 720 pixels
Height                                   : 432 pixels
Display aspect ratio                     : 1.667
Frame rate mode                          : Constant
Frame rate                               : 25.000 fps
Color space                              : YUV
Chroma subsampling                       : 4:2:0
Bit depth                                : 8 bits
Scan type                                : Progressive
Bits/(Pixel*Frame)                       : 0.217
Stream size                              : 1.16 GiB (79%)
Title                                    : Gleaming the Cube
Writing library                          : x264 core 125 r2208 d9d2288
Encoding settings                        : cabac=1 / ref=8 / deblock=1:-1:-1 / analyse=0x3:0x133 / me=umh / subme=9 / psy=1 / psy_rd=1.00:0.10 / mixed_ref=1 / me_range=32 / chroma_me=1 / trellis=2 / 8x8dct=1 / cqm=0 / deadzone=21,11 / fast_pskip=0 / chroma_qp_offset=-3 / threads=6 / lookahead_threads=1 / sliced_threads=0 / nr=0 / decimate=1 / interlaced=0 / bluray_compat=0 / constrained_intra=0 / bframes=3 / b_pyramid=2 / b_adapt=2 / b_bias=0 / direct=3 / weightb=1 / open_gop=0 / weightp=2 / keyint=250 / keyint_min=25 / scenecut=40 / intra_refresh=0 / rc_lookahead=60 / rc=2pass / mbtree=1 / bitrate=1685 / ratetol=1.0 / qcomp=0.60 / qpmin=0 / qpmax=69 / qpstep=4 / cplxblur=20.0 / qblur=0.5 / ip_ratio=1.40 / aq=1:1.00
Language                                 : English
Default                                  : Yes
Forced                                   : No
Audio #1
ID                                       : 2
Format                                   : MPEG Audio
Format version                           : Version 1
Format profile                           : Layer 3
Mode                                     : Joint stereo
Mode extension                           : MS Stereo
Codec ID                                 : A_MPEG/L3
Codec ID/Hint                            : MP3
Duration                                 : 1h 40mn
Bit rate mode                            : Constant
Bit rate                                 : 192 Kbps
Channel(s)                               : 2 channels
Sampling rate                            : 48.0 KHz
Compression mode                         : Lossy
Stream size                              : 138 MiB (9%)
Title                                    : Дубляж
Writing library                          : LAME3.96.1
Language                                 : Russian
Default                                  : Yes
Forced                                   : No
Audio #2
ID                                       : 3
Format                                   : AC-3
Format/Info                              : Audio Coding 3
Mode extension                           : CM (complete main)
Format settings, Endianness              : Big
Codec ID                                 : A_AC3
Duration                                 : 1h 40mn
Bit rate mode                            : Constant
Bit rate                                 : 192 Kbps
Channel(s)                               : 2 channels
Channel positions                        : Front: L R
Sampling rate                            : 48.0 KHz
Bit depth                                : 16 bits
Compression mode                         : Lossy
Stream size                              : 138 MiB (9%)
Title                                    : Оригинал
Language                                 : English
Default                                  : No
Forced                                   : No
Text
ID                                       : 4
Format                                   : UTF-8
Codec ID                                 : S_TEXT/UTF8
Codec ID/Info                            : UTF-8 Plain Text
Title                                    : SRT
Language                                 : Russian
Default                                  : No
Forced                                   : No
-Скриншоты:


Смотреть онлайн

[trackeroc.ru].9452.torrent 
Торрент: Зарегистрирован   [ 2016-08-19 22:39 ]

Скачать торрент

15 KB

Статус: проверено
Скачан: 40 раз
Размер: 1.45 GB
 

Admin (01-ноя-15)

_________________
[Профиль] [ЛС]
Показать сообщения:    
Ответить на тему

Текущее время: Сегодня 22:14

Часовой пояс: GMT + 4



Вы не можете начинать темы
Вы не можете отвечать на сообщения
Вы не можете редактировать свои сообщения
Вы не можете удалять свои сообщения
Вы не можете голосовать в опросах
Вы не можете прикреплять файлы к сообщениям
Вы можете скачивать файлы