Достоинство / The Timber [2015, США, ANA Media, Драма, приключения, вестерн, HDRip]

Ответить на тему

Статистика раздачи [Обновить пиров]
Размер:  1.37 GB   |    Зарегистрирован:  1 год 1 месяц   |    Скачан:  5 раз
Сидов:  684  [  0 KB/s  ]   Личеров:  668  [  0 KB/s  ]   Подробная статистика пиров
   
 
Автор Сообщение

Admin ®

Стаж: 7 месяцев 11 дней

Сообщений: 4447

Откуда: trackeroc.ru


Пост 28-Окт-2015 21:25

[Цитировать]

Достоинство / The Timber
Страна: США, ANA Media
Жанр: Драма, приключения, вестерн
Год выпуска: 2015
Продолжительность: 01:20:27
Перевод: Одноголосый закадровый datynet
Cубтитры: нет
Режиссер: Энтони О`Брайэн / Anthony O'Brien
В ролях: Джеймс Рэнсон, Элиза Ласовски, Марк Кавен, Уильям Гонт, Дэвид Бэйли, Аттила Арпа, Шон О`Хаган, Мариус Флориан, Разван Георгиу, Мария Дойл Кеннеди, Джош Пек
Описание: Год 1889. В ледяной Аляске, во время золотой лихорадки, братья Самуэль (Джош Пек) и Уайетт (Джеймс Рансон) отправляются в опасное путешествие. Для того, чтобы сохранить честь дома, они должны найти тираничного своего отца, который много лет назад их оставил. Впереди у них куча неприятностей с жестокими бандитами. Мрачные сцены и сырой климат меркнут перед алчностью, жажды власти и смерти, с которыми они сталкиваются.
Доп. информация:

http://www.kinopoisk.ru/film/665408
Сэмпл: http://sendfile.su/1168874
Качество видео: HDRip
Формат видео: AVI
Видео: XVID, 1978 kb/s, 720x304, 23.976 fps
Аудио: Russian : AC3, 448 kb/s (6 ch), 48.0 KHz

MediaInfo

Dostynsvo.2015.L1.HDRip.1400MB.avi
Format : AVI
Format/Info : Audio Video Interleave
File size : 1.37 GiB
Duration : 1h 20mn
Overall bit rate : 2 436 Kbps
Writing application : VirtualDubMod 1.5.10.2 (build 2540/release)
Writing library : VirtualDubMod build 2540/release
Video
ID : 0
Format : MPEG-4 Visual
Format profile : Advanced Simple@L5
Format settings, BVOP : 2
Format settings, QPel : No
Format settings, GMC : No warppoints
Format settings, Matrix : Default (MPEG)
Codec ID : XVID
Codec ID/Hint : XviD
Duration : 1h 20mn
Bit rate : 1 979 Kbps
Width : 720 pixels
Height : 304 pixels
Display aspect ratio : 2.35:1
Frame rate : 23.976 fps
Color space : YUV
Chroma subsampling : 4:2:0
Bit depth : 8 bits
Scan type : Progressive
Compression mode : Lossy
Bits/(Pixel*Frame) : 0.377
Stream size : 1.11 GiB (81%)
Writing library : XviD 1.2.1 (UTC 2008-12-04)
Audio
ID : 1
Format : AC-3
Format/Info : Audio Coding 3
Mode extension : CM (complete main)
Format settings, Endianness : Big
Codec ID : 2000
Duration : 1h 20mn
Bit rate mode : Constant
Bit rate : 448 Kbps
Channel(s) : 6 channels
Channel positions : Front: L C R, Side: L R, LFE
Sampling rate : 48.0 KHz
Compression mode : Lossy
Stream size : 257 MiB (18%)
Alignment : Split accross interleaves
Interleave, duration : 42 ms (1.00 video frame)
Interleave, preload duratio : 500 ms

Скриншот c названием фильма

Скриншоты

[center] [/center]


Смотреть онлайн

[trackeroc.ru].9346.torrent 
Торрент: Зарегистрирован   [ 2015-10-28 21:25 ]

Скачать торрент

2 KB

Статус: проверено
Скачан: 22 раз
Размер: 1.37 GB
 


_________________
[Профиль] [ЛС]
Показать сообщения:    
Ответить на тему

Текущее время: Сегодня 06:45

Часовой пояс: GMT + 4



Вы не можете начинать темы
Вы не можете отвечать на сообщения
Вы не можете редактировать свои сообщения
Вы не можете удалять свои сообщения
Вы не можете голосовать в опросах
Вы не можете прикреплять файлы к сообщениям
Вы можете скачивать файлы