Дракула / Dracula (2020) WEBRip [H.264/1080p-LQ] (сезон 1, серии 1-3 из 3) HDRezka Studio [AD] скачать торрент

Reply to topic

DL-List and Torrent activity [Update пиров]
Size:  13.1 GB   |    Registered:  17 days   |    Completed:  0 times

Seeder not seen: Never

 
 
 
 
 
Author Message

BiOS ®

Longevity: 5 years 9 months

Posts: 2408

Location: Earth


Post 07-Jan-2020 19:46

[Quote]

Дракула / Dracula - Производство: Великобритания / Hartswood Films, British Broadcasting Corporation (BBC), Netflix
Жанр: ужасы, драма
Режиссер: Джонни Кэмпбелл, Пол МакГиган, Дэймон Томас
Актеры: Клас Банг, Долли Уэллс, Джон Хеффернан, Джоэнна Скэнлэн, Морфидд Кларк, Джонатан Арис, Юссеф Керкур, Нэйтан Стюарт-Джарретт, Катерина Шелл, Линдси Маршал и др.
Описание:
Трансильвания, 1897 год. В женском монастыре нашёл приют обессиленный Джонатан Харкер, которому удалось сбежать из замка графа Дракулы. Большой интерес к произошедшему проявляет сестра Агата — тщательно изучив записи Джонатана, она просит рассказать его историю во всех подробностях. Некоторое время назад молодой британец прибыл в замок эксцентричного пожилого румынского аристократа, чтобы тот подписал бумаги о приобретённой им в Лондоне недвижимости. Парень собирался отбыть на следующий день, но граф фактически заключил его в плен: выбраться из бесконечных лабиринтов замка оказывается не так просто, по ночам Джонатана мучают кошмары, и чем хуже он себя чувствует, тем моложе становится Дракула.

Дата мировой премьеры: 1 января 2020
Продолжительность: ~01:30:00 серия
Качество видео: WEBRip
Перевод: Многоголосый профессиональный (HDRezka Studio)
Реклама: присутствуют аудио вставки рекламы
Видео: AVC/H.264, 1920x1080 (16:9), ~3695-9720 Kbps
Аудио: AC3, 2 ch, 192 Kbps - русский

MediaInfo:

Общее
Уникальный идентификатор : 46406253340634285305988354721615513318 (0x22E984F04A94DADF72D565575E3D06E6)
Полное имя : Dracula.S01E01.WEBRip.1080p.mkv
Формат : Matroska
Версия формата : Version 4
Размер файла : 4,46 Гбайт
Продолжительность : 1 ч. 28 м.
Режим общего битрейта : Переменный
Общий поток : 7170 Кбит/сек
Дата кодирования : UTC 2020-01-04 23:59:16
Программа кодирования : mkvmerge v28.2.0 ('The Awakening') 64-bit
Библиотека кодирования : libebml v1.3.6 + libmatroska v1.4.9
Видео
Идентификатор : 1
Формат : AVC
Формат/Информация : Advanced Video Codec
Профиль формата : High@L4.1
Настройки формата : CABAC / 1 Ref Frames
Параметр CABAC формата : Да
Параметр RefFrames формата : 1 кадр
Идентификатор кодека : V_MPEG4/ISO/AVC
Продолжительность : 1 ч. 28 м.
Вид битрейта : Переменный
Битрейт : 6976 Кбит/сек
Максимальный битрейт : 2000 Кбит/сек
Ширина : 1920 пикселей
Высота : 1080 пикселей
Соотношение сторон : 16:9
Режим частоты кадров : Постоянный
Частота кадров : 25,000 кадров/сек
Цветовое пространство : YUV
Субдискретизация насыщенности : 4:2:0
Битовая глубина : 8 бит
Тип развёртки : Прогрессивная
Бит/(Пиксели*Кадры) : 0.135
Размер потока : 4,34 Гбайт (97%)
Default : Да
Forced : Нет
Аудио
Идентификатор : 2
Формат : AC-3
Формат/Информация : Audio Coding 3
Коммерческое название : Dolby Digital
Идентификатор кодека : A_AC3
Продолжительность : 1 ч. 28 м.
Вид битрейта : Постоянный
Битрейт : 192 Кбит/сек
Каналы : 2 канала
ChannelLayout : L R
Частота : 48,0 КГц
Частота кадров : 31,250 кадров/сек (1536 SPF)
Метод сжатия : С потерями
Размер потока : 122 Мбайт (3%)
Язык : Russian
ServiceKind/String : Complete Main
Default : Да
Forced : Нет
-Скриншоты:


Смотреть онлайн


[trackeroc.org].29751.torrent 
Torrent: Registered   [ 2020-01-07 19:46 ]

Скачать торрент

67 KB

Status: checked
Completed: 4 times
Size: 13.1 GB
 

Admin (07-янв-20)
Similar torrent
Forum Topic Author Size
Сasual games, Тайм менеджмент Невероятный Дракула 7: Проклятие ведьм / Incredible Dracula 7 Witches Curse (2019) RUS Admin 348 MB
Сasual games, Тайм менеджмент Incredible Dracula 7 Witches Curse (2019) ENG Admin 355 MB
Сasual games, Тайм менеджмент Невероятный Дракула 5. Возвращение Варгоши / Incredible Dracula 5: Vargosi Returns (2018) RUS Admin 383 MB
Сasual games, Тайм менеджмент Невероятный Дракула 4. Игры богов / Incredible Dracula 4 (2017) RUS Admin 373 MB

_________________
[Profile] [PM]
Display posts from previous:    
Reply to topic

The time now is: Today 00:49

All times are GMT + 4 Hours



You cannot post new topics in this forum
You cannot reply to topics in this forum
You cannot edit your posts in this forum
You cannot delete your posts in this forum
You cannot vote in polls in this forum
You cannot attach files in this forum
You can download files in this forum