(Dubstep, Future Jazz) Submotion Orchestra - III - Single - 2015, MP3, 320 kbps скачать торрент

Ответить на тему

Статистика раздачи [Обновить пиров]
Размер:  29 MB   |    Зарегистрирован:  1 год 11 месяцев   |    Скачан:  2 раза

Полного источника не было: 23 дня

 
   
 
 
 
Автор Сообщение

Матвей ®

Стаж: 1 год 11 месяцев

Сообщений: 224

Откуда: Челябинск


Пост 24-Окт-2015 14:12

[Цитировать]

Submotion Orchestra / III - Single
Жанр: Dubstep, Future Jazz
Страна исполнителя (группы): UK
Год издания: 11.09.2015
Издатель (лэйбл): Counter Records
Аудиокодек: MP3
Битрейт аудио: 320 kbps
Тип рипа: tracks
Продолжительность: 00:12:32
Наличие сканов в содержимом раздачи: нет
Источник: ссылка
Треклист:
1. Doppelgänger
2. Lift Music
3. Select & Operate

Скриншот проверки качества материала

----------------------------------------------------------------------------------------------
Analyzed folder: /Users/Leonid/Desktop/Submotion Orchestra - III - Single - 2015
----------------------------------------------------------------------------------------------
DR Peak RMS Filename
----------------------------------------------------------------------------------------------
DR7 -0.00 dB -9.21 dB 01 Doppelgänger.mp3
DR8 -0.01 dB -10.04 dB 02 Lift Music.mp3
DR7 -0.00 dB -9.32 dB 03 Select & Operate.mp3
----------------------------------------------------------------------------------------------
Number of files: 3
Official DR value: DR8


[trackeroc.ru].9173.torrent 
Торрент: Зарегистрирован   [ 2015-10-24 14:12 ]

Скачать торрент

20 KB

Статус: проверено
Скачан: 30 раз
Размер: 29 MB
 

Похожие торренты
Форум Тема Автор Размер
Adventure Future Unfolding (2017) [En/Ge] (v1.0.2) License GOG Admin 136 MB
Strategy, Стратегии Industry Manager: Future Technologies (v1.1.3) (2016) [RU|En] BiOS 445 MB
Drum & Bass, Jungle, Breakbeat, Dubstep Enigma Dubz - The Journey So Far/Part One (2015) [FLAC|Lossless|WEB-DL|tracks] <Dubstep, Electro> BiOS 335 MB
Drum & Bass, Jungle, Breakbeat, Dubstep Enigma Dubz - The Journey So Far/Part Two (2015) [FLAC|Lossless|WEB-DL|tracks] <Dubstep, Electro> BiOS 348 MB

_________________

[Профиль] [ЛС]
Показать сообщения:    
Ответить на тему

Текущее время: Сегодня 00:42

Часовой пояс: GMT + 4



Вы не можете начинать темы
Вы не можете отвечать на сообщения
Вы не можете редактировать свои сообщения
Вы не можете удалять свои сообщения
Вы не можете голосовать в опросах
Вы не можете прикреплять файлы к сообщениям
Вы можете скачивать файлы