Двойник / По ту сторону / Counterpart (2017) WEB-DLRip (сезон 1, серии 1-3 из 10) OMSKBIRD скачать торрент

Ответить на тему

Статистика раздачи [Обновить пиров]
Размер:  2.13 GB   |    Зарегистрирован:  18 дней   |    Скачан:  1 раз
Сидов:  1  [  0 KB/s  ]   Подробная статистика пиров
 
 
 
 
Автор Сообщение

Admin ®

Стаж: 3 года 9 месяцев

Сообщений: 6159

Откуда: Скачать торрент


Пост 05-Фев-2018 12:52

[Цитировать]

По ту сторону / Обратная сторона / Двойник / Counterpart - Производство: США
Жанр: фантастика, триллер, драма
Режиссер: Алик Сахаров, Мортен Тильдум
Актеры: Дж.К. Симмонс, Гарри Ллойд, Назанин Бониади, Оливия Уильямс, Сара Серайокко, Ульрих Томсен, Бернхард Форхер, Кеннет Чои и др.
Описание:
Жизнь Говарда Силка обыденная и пресная. Ежедневная работа в одной из бюрократических компаний, где один рабочий день похож на другой. Семейный дом, где Говарда преданно ждет жена Эмили. Завтрашний день не должен опять принести Силку никаких потрясений. Все меняется в одночасье, когда скромный служащий корпорации узнает об истинном роде деятельности своей компании. За внешним фасадом учреждения скрывается необычная тайна: подразделение Говарда находится в тесной связи с параллельными мирами. Новое открытие резко меняет скучную и опостылевшую жизнь героя. Оказывается, у него есть двойник в загадочной вселенной, скрытой от людских глаз и зовут его Праймом. Жизнь его «отражения» полна важных задач. Самая главная из них: определиться с понятием кто есть кто в каждом из существующих рядом миров. Новый знакомый мужчины обладает обширными знаниями. Теперь 2-м партнерам предстоит вместе разобраться в краеугольных камнях построения бытия и дать ответы на вопросы: что такое настоящая любовь, что движет человеком в принятии важных решений и каким должен быть идеальный житель общей вселенной.
Дата мировой премьеры: 10 декабря 2017

Продолжительность: ~00:60:00 серия
Качество видео: WEB-DLRip
Перевод: Многоголосый закадровый, профессиональный - OMSKBIRD
Реклама: Присутствует реклама!
Кодек: Xvid
Качество: WEB-DLRip
Видео: AVI, 720x400 (16:9), 23.976 fps, ~ 1800 kbps
Звук: Аудио rus: AC-3, 48 KHz, 2 ch, 192 kbps | OMSKBIRD records

Mediainfo:

Код:
General
Format : AVI
Format/Info : Audio Video Interleave
File size : 738 MiB
Duration : 56 min 2 s
Overall bit rate : 1 840 kb/s
Writing application : VirtualDubMod 1.5.10.3 | www.virtualdub-fr.org || (build 2550/release)
Writing library : VirtualDubMod build 2550/release
Video
ID : 0
Format : MPEG-4 Visual
Format profile : Advanced Simple@L5
Format settings, BVOP : 1
Format settings, QPel : No
Format settings, GMC : No warppoints
Format settings, Matrix : Default (H.263)
Codec ID : XVID
Codec ID/Hint : XviD
Duration : 56 min 2 s
Bit rate : 1 638 kb/s
Width : 720 pixels
Height : 400 pixels
Display aspect ratio : 16:9
Frame rate : 23.976 (24000/1001) FPS
Color space : YUV
Chroma subsampling : 4:2:0
Bit depth : 8 bits
Scan type : Progressive
Compression mode : Lossy
Bits/(Pixel*Frame) : 0.237
Stream size : 657 MiB (89%)
Writing library : XviD 67
Audio
ID : 1
Format : AC-3
Format/Info : Audio Coding 3
Format settings, Endianness : Big
Codec ID : 2000
Duration : 56 min 2 s
Bit rate mode : Constant
Bit rate : 192 kb/s
Channel(s) : 2 channels
Channel positions : Front: L R
Sampling rate : 48.0 kHz
Frame rate : 31.250 FPS (1536 SPF)
Bit depth : 16 bits
Compression mode : Lossy
Stream size : 77.0 MiB (10%)
Alignment : Split accross interleaves
Interleave, duration : 42 ms (1.00 video frame)
Interleave, preload duratio : 500 ms
-Скриншоты:


Смотреть онлайн


[trackeroc.ru].23942.torrent 
Торрент: Зарегистрирован   [ 2018-02-05 12:52 ]

Скачать торрент

12 KB

Статус: T временная
Скачан: 5 раз
Размер: 2.13 GB
 



_________________
[Профиль] [ЛС]
Показать сообщения:    
Ответить на тему

Текущее время: Сегодня 02:31

Часовой пояс: GMT + 4



Вы не можете начинать темы
Вы не можете отвечать на сообщения
Вы не можете редактировать свои сообщения
Вы не можете удалять свои сообщения
Вы не можете голосовать в опросах
Вы не можете прикреплять файлы к сообщениям
Вы можете скачивать файлы