Фантастическая четверка / Fantastic Four (2015) HDRip [Line]

Ответить на тему

Статистика раздачи [Обновить пиров]
Размер:  1.45 GB   |    Зарегистрирован:  1 год 1 месяц   |    Скачан:  5 раз

Полного источника не было: 13 дней

 
 
 
 
Автор Сообщение

Admin ®

Стаж: 7 месяцев 10 дней

Сообщений: 4447

Откуда: trackeroc.ru


Пост 14-Авг-2015 09:07

[Цитировать]

Фантастическая четверка / Fantastic Four - Производство: США / 20th Century Fox Film Corporation, Marvel Entertainment
Жанр: Фантастика, Боевик, Приключения
Режиссер: Джошуа Транк
Продюсер: Грегори Гудман, Саймон Кинберг, Роберт Кульцер
Актеры: Майлз Теллер, Майкл Б. Джордан, Кейт Мара, Джейми Белл, Тоби Кеббелл, Рег Э. Кэти, Тим Блейк Нельсон, Джошуа Монтес, Дэн Кастелланета, Оуэн Джадж
Описание:
История о четырех молодых астронавтах, которые отважились на авантюрное путешествие в параллельное измерение для исследования аномальной волны космической энергии. Вернувшись из путешествия, они обнаружили у себя суперспособности, которые навсегда изменили их жизни...
Дата мировой премьеры: 5 августа 2015
Дата премьеры в России: 20 августа 2015, «Двадцатый Век Фокс СНГ»
Продолжительность: 01:39:58
Качество видео: HDRip
Перевод: Дублированный (чистый звук)
Субтитры: Отсутствуют
Релиз от: Электричка
Видео: XviD, 720x304, ~1882 kb/s
Аудио: 48 kHz, AC3, 2 ch, 192 Кбит/с
Семпл: Скачать

Mediainfo

Код:
Общее
Полное имя                               : Fantastic Four.2015.D.HDRip.nnm-club.avi
Формат                                   : AVI
Формат/Информация                        : Audio Video Interleave
Размер файла                             : 1,45 Гбайт
Продолжительность                        : 1 ч. 39 м.
Общий поток                              : 2083 Кбит/сек
Название фильма                          : FaN1aS1i4esKayA.4e1veRk0.2015.D.HDRip.ELEKTRI4KA.uniongang.tv
Программа кодирования                    : VirtualDubMod 1.5.10.3 | (build 2550/release)
Правообладатель                          : ELEKTRI4KA&RUSTORRENTS
Видео
Идентификатор                            : 0
Формат                                   : MPEG-4 Visual
Профиль формата                          : Advanced Simple@L5
Параметр BVOP формата                    : 2
Параметр QPel формата                    : Нет
Параметр GMC формата                     : Без точки перехода
Параметр матрицы формата                 : Default (MPEG)
Идентификатор кодека                     : XVID
Идентификатор кодека/Подсказка           : XviD
Продолжительность                        : 1 ч. 39 м.
Битрейт                                  : 1882 Кбит/сек
Ширина                                   : 720 пикселей
Высота                                   : 304 пикселя
Соотношение сторон                       : 2,35:1
Частота кадров                           : 23,976 кадра/сек
Цветовое пространство                    : YUV
Субдискретизация насыщенности            : 4:2:0
Битовая глубина                          : 8 бит
Тип развёртки                            : Прогрессивная
Метод сжатия                             : С потерями
Бит/(Пиксели*Кадры)                      : 0.359
Размер потока                            : 1,31 Гбайт (90%)
Библиотека кодирования                   : XviD 1.2.1 (UTC 2008-12-04)
Аудио
Идентификатор                            : 1
Формат                                   : AC-3
Формат/Информация                        : Audio Coding 3
Расширение режима                        : CM (complete main)
Параметр Endianness формата              : Big
Идентификатор кодека                     : 2000
Продолжительность                        : 1 ч. 39 м.
Вид битрейта                             : Постоянный
Битрейт                                  : 192 Кбит/сек
Каналы                                   : 2 канала
Расположение каналов                     : Front: L R
Частота                                  : 48,0 КГц
Метод сжатия                             : С потерями
Размер потока                            : 137 Мбайт (9%)
Выравнивание                             : Разделение по промежуткам
Продолжительность промежутка             : 42  мс. (1,00 видеокадр)
Время предзагрузки промежутка            : 500  мс.
Скриншоты:


Смотреть онлайн

[trackeroc.ru].7515.torrent 
Торрент: Зарегистрирован   [ 2015-10-28 20:27 ]

Скачать торрент

15 KB

Статус: проверено
Скачан: 28 раз
Размер: 1.45 GB
 

Torio (29-окт-15)
Похожие торренты
Форум Тема Автор Размер
Cимуляторы Фантастическая рыбалка / Fantastic Fishing [v1.0.9] (2015) (RUS) Admin 260 MB

_________________
[Профиль] [ЛС]
Показать сообщения:    
Ответить на тему

Текущее время: Сегодня 06:17

Часовой пояс: GMT + 4



Вы не можете начинать темы
Вы не можете отвечать на сообщения
Вы не можете редактировать свои сообщения
Вы не можете удалять свои сообщения
Вы не можете голосовать в опросах
Вы не можете прикреплять файлы к сообщениям
Вы можете скачивать файлы