Фантастические твари и где они обитают / Fantastic Beasts and Where to Find Them (2016) WEBRip [H.264/1080p-LQ] [Line]

Ответить на тему
 
Автор Сообщение

BiOS ®

Стаж: 3 года 2 месяца

Сообщений: 1988

Откуда: Raccoon City


Пост 20-Ноя-2016 05:53

[Цитировать]

Фантастические твари и где они обитают / Fantastic Beasts and Where to Find Them«Открой новую главу волшебного мира Дж.К.Роулинг»- Производство: Великобритания, США, Cinesite, Double Negative, Framestore
Жанр: Фэнтези, Приключения, Cемейный
Режиссер: Дэвид Йэтс
Продюсер: Нил Блэр, Дэвид Хейман, Стивен Кловз
Актеры: Эдди Редмэйн, Эзра Миллер, Колин Фаррелл, Кэтрин Уотерстон, Рон Перлман, Саманта Мортон, Джон Войт, Дэн Фоглер, Кармен Эджого, Элисон Судол, Кристин Мардзано
Описание:
Поиск и изучение необычайных волшебных существ приводят магозоолога Ньюта Саламандера в Нью-Йорк. Скорее всего, он отбыл бы на поезде дальше, если бы не не маг (так в Америке называют магглов) по имени Якоб, оставленный в неположенном месте магический чемодан и побег из него фантастических животных Ньюта.
Возраст: 12+ (зрителям, достигшим 12 лет)
Рейтинг MPAA: PG-13 (детям до 13 лет просмотр нежелателен)
Дата мировой премьеры: 8 ноября 2016
Дата премьеры в России: 17 ноября 2016, «Каро-Премьер»

Продолжительность: 02:13:13
Качество видео: WEBRip
Перевод: Дублированный (Чистый звук)
Вид субтитров: Вшитые неотключаемые
Язык субтитров: Корейский
Реклама: Присутствуют голосовые и текстовые вставки рекламы.
Видео: AVC/H.264, 1920x800 (2.40:1), 4819 kbps
Аудио: 48 kHz, AC3 Dolby Digital, 2/0 (L,R) ch, ~384 kbps

MI

Общее
Формат : Matroska
Версия формата : Version 2
Размер файла : 4,94 Гбайт
Продолжительность : 2 ч. 13 м.
Режим общего битрейта : Переменный
Общий поток : 5309 Кбит/сек
Дата кодирования : UTC 2017-01-19 18:06:56
Программа кодирования : mkvmerge v8.3.0 ('Over the Horizon') 64bit
Библиотека кодирования : libebml v1.3.1 + libmatroska v1.4.2
DURATION : 02:13:13.151000000
NUMBER_OF_FRAMES : 239555
NUMBER_OF_BYTES : 4918450371
_STATISTICS_WRITING_APP : mkvmerge v8.3.0 ('Over the Horizon') 64bit
_STATISTICS_WRITING_DATE_UTC : 2017-01-19 18:06:56
_STATISTICS_TAGS : BPS DURATION NUMBER_OF_FRAMES NUMBER_OF_BYTES
Видео
Идентификатор : 1
Формат : AVC
Формат/Информация : Advanced Video Codec
Профиль формата : High@L4.1
Параметр CABAC формата : Да
Параметр ReFrames формата : 5 кадров
Идентификатор кодека : V_MPEG4/ISO/AVC
Продолжительность : 2 ч. 13 м.
Вид битрейта : Переменный
Битрейт : 4819 Кбит/сек
Максимальный битрейт : 5300 Кбит/сек
Ширина : 1920 пикселей
Высота : 800 пикселей
Соотношение сторон : 2,40:1
Режим частоты кадров : Постоянный
Частота кадров : 29,970 кадров/сек
Стандарт вещания : Component
Цветовое пространство : YUV
Субдискретизация насыщенности : 4:2:0
Битовая глубина : 8 бит
Тип развёртки : Прогрессивная
Бит/(Пиксели*Кадры) : 0.105
Размер потока : 4,48 Гбайт (91%)
Default : Да
Forced : Нет
Цветовой диапазон : Limited
Основные цвета : BT.709
Характеристики трансфера : BT.709
Коэффициенты матрицы : BT.709
Аудио
Идентификатор : 2
Формат : AC-3
Формат/Информация : Audio Coding 3
Расширение режима : CM (complete main)
Параметр Endianness формата : Big
Идентификатор кодека : A_AC3
Продолжительность : 2 ч. 13 м.
Вид битрейта : Постоянный
Битрейт : 384 Кбит/сек
Каналы : 2 канала
Расположение каналов : Front: L R
Частота : 48,0 КГц
Метод сжатия : С потерями
Размер потока : 366 Мбайт (7%)
Default : Да
Forced : Нет
-Скриншоты:


Смотреть онлайн


[trackeroc.ru].16699.torrent 
Торрент: Зарегистрирован   [ 2017-01-20 16:39 ]

Скачать торрент

26 KB

Статус: проверено
Скачан: 100 раз
Размер: 4.94 GB
 

Admin (20-ноя-16)

_________________


Последний раз редактировалось: BiOS (2017-01-20 16:39), всего редактировалось 1 раз
[Профиль] [ЛС]

DarthNihilus

Стаж: 2 года 7 месяцев

Сообщений: 468

Откуда: Korriban


Пост 24-Ноя-2016 19:38 (спустя 4 дня)

[Цитировать]

new_russian popcorm2 
[Профиль] [ЛС]
Показать сообщения:    
Ответить на тему

Текущее время: Сегодня 09:19

Часовой пояс: GMT + 4



Вы не можете начинать темы
Вы не можете отвечать на сообщения
Вы не можете редактировать свои сообщения
Вы не можете удалять свои сообщения
Вы не можете голосовать в опросах
Вы не можете прикреплять файлы к сообщениям
Вы можете скачивать файлы