Филадельфийский эксперимент / Секретный эксперимент / The Philadelphia Experiment (1984) DVDRip

Ответить на тему

Статистика раздачи [Обновить пиров]
Размер:  1.37 GB   |    Зарегистрирован:  1 год   |    Скачан:  4 раза

Полного источника не было: 5 месяцев 23 дня

 
 
 
 
Автор Сообщение

BiOS ®

Стаж: 2 года 7 месяцев

Сообщений: 1734

Откуда: Raccoon City


Пост 19-Ноя-2015 11:54

[Цитировать]

Филадельфийский эксперимент / Секретный эксперимент / The Philadelphia Experiment - Год выпуска: 1984
Производство: США | New world pictures
Жанр: Фантастика, Триллер, Приключения
Описание фильма:
Вторая мировая война. Испытывается оборудование, которое делает американские военные корабли невидимыми для радаров противника. Во время этих экспериментов исчезает один боевой корабль, а два моряка оказываются заброшенными в 1984 год.
Режиссер: Стюарт Рэффил
Актеры: Майкл Паре, Нэнси Аллен, Эрик Кристмас, Бобби Ди Чикко, Луиз Лэтэм, Кин Холлидэй, Джо Дорси, Майкл Карри, Стивен Тоболовски, Гэри Брокетт
Продолжительность: 01:33:35
Качество видео: DVDRip
Перевод: Профессиональный (Полное дублирование)
Дата мировой премьеры: 3 августа 1984
Дата выхода DVD релиза: 1 марта 2007, «Cinema Prestige»
Видео: Xvid, 720 x 384 (1.85:1), 23.976 fps, ~1900 kbps avg, 0.287 bit/pixel
Аудио: 48 kHz, Audio Coding 3 Dolby Digital, 2 ch (Front: L, R), ~192 kbps avg
Сэмпл: Ссылка

MediaINfo

Код:
General
Complete name                  : D:\фильмы\Filadelfijskij.experiment.1984.DVDRip.avi
Format                         : AVI
Format/Info                    : Audio Video Interleave
File size                      : 1.37 GiB
Duration                       : 1h 33mn
Overall bit rate               : 2 101 Kbps
Writing application            : VirtualDubModRus 1.5.10.2 (build 2540/release)
Writing library                : VirtualDubMod build 2540/release
Video
ID                             : 0
Format                         : MPEG-4 Visual
Format profile                 : Advanced Simple@L5
Format settings, BVOP          : Yes
Format settings, QPel          : No
Format settings, GMC           : No warppoints
Format settings, Matrix        : Default (MPEG)
Codec ID                       : XVID
Codec ID/Hint                  : XviD
Duration                       : 1h 33mn
Bit rate                       : 1 900 Kbps
Width                          : 720 pixels
Height                         : 384 pixels
Display aspect ratio           : 1.85:1
Frame rate                     : 23.976 fps
Color space                    : YUV
Chroma subsampling             : 4:2:0
Bit depth                      : 8 bits
Scan type                      : Progressive
Compression mode               : Lossy
Bits/(Pixel*Frame)             : 0.287
Stream size                    : 1.24 GiB (90%)
Writing library                : XviD 64
Audio
ID                             : 1
Format                         : AC-3
Format/Info                    : Audio Coding 3
Mode extension                 : CM (complete main)
Format settings, Endianness    : Big
Codec ID                       : 2000
Duration                       : 1h 33mn
Bit rate mode                  : Constant
Bit rate                       : 192 Kbps
Channel(s)                     : 2 channels
Channel positions              : Front: L R
Sampling rate                  : 48.0 KHz
Bit depth                      : 16 bits
Compression mode               : Lossy
Stream size                    : 129 MiB (9%)
Alignment                      : Split accross interleaves
Interleave, duration           : 42 ms (1.00 video frame)
Interleave, preload duration   : 500 ms
-Скриншоты:


Смотреть онлайн

[trackeroc.ru].9914.torrent 
Торрент: Зарегистрирован   [ 2015-11-19 11:54 ]

Скачать торрент

15 KB

Статус: проверено
Скачан: 19 раз
Размер: 1.37 GB
 

Admin (19-ноя-15), Angel (20-ноя-15)

_________________


Последний раз редактировалось: BiOS (2015-11-20 10:12), всего редактировалось 1 раз
[Профиль] [ЛС]

Angel

Стаж: 1 год 3 месяца

Сообщений: 31


Пост 20-Ноя-2015 08:02 (спустя 20 часов)

[Цитировать]

Есть ещё вторая часть, но эта лучше 
[Профиль] [ЛС]
Показать сообщения:    
Ответить на тему

Текущее время: Сегодня 19:56

Часовой пояс: GMT + 4



Вы не можете начинать темы
Вы не можете отвечать на сообщения
Вы не можете редактировать свои сообщения
Вы не можете удалять свои сообщения
Вы не можете голосовать в опросах
Вы не можете прикреплять файлы к сообщениям
Вы можете скачивать файлы