Frank Sinatra - The Platinum Collection 3CD (2004) [WavPack|Lossless]<Vocal Jazz>

Ответить на тему

Статистика раздачи [Обновить пиров]
Качают
Размер:  1012 MB   |    Зарегистрирован:  1 год 1 месяц   |    Скачан:  3 раза

Полного источника не было: 3 месяца 9 дней

 
 
 
 
Автор Сообщение

Матвей ®

Стаж: 1 год 2 месяца

Сообщений: 236

Откуда: Челябинск


Пост 11-Окт-2015 15:48

[Цитировать]

Frank Sinatra - The Platinum Collection-- Год: 2004
Жанр: Vocal Jazz
Продолжительность: 02:20:45
Лейбл: Capitol
Каталог: 7243 8 64765 2 4
Кодек: WavPack (image+.cue + log)
Битрейт: Lossless

CD 1&#58;

Трек лист:
01. Come Fly With Me (3:18)
02. Love And Marriage (2:38)
03. I've Got You Under My Skin (3:43)
04. Just One Of Those Things (3:15)
05. Witchcraft (2:52)
06. (Love Is) The Tender Trap (2:58)
07. That Old Black Magic (4:03)
08. They Can't Take That Away From Me (1:57)
09. All The Way (2:52)
10. I've Got The World On A String (2:11)
11. Fools Rush In (3:22)
12. Three Coins In The Fountain (3:06)
13. It's Nice To Go Trav'ling (3:51)
14. I Love Paris (1:51)
15. Chicago (2:13)
16. High Hopes (2:43)
Продолжительность – 00:46:53

Отчёт ЕАС&#58;

Код:
Exact Audio Copy V0.99 prebeta 5 from 4. May 2009
EAC extraction logfile from 12. June 2010, 12:48
Frank Sinatra / The Platinum Collection (disc one)
Used drive  : PLEXTOR CD-R   PREMIUM   Adapter: 0  ID: 0
Read mode               : Secure
Utilize accurate stream : Yes
Defeat audio cache      : Yes
Make use of C2 pointers : No
Read offset correction                      : 30
Overread into Lead-In and Lead-Out          : No
Fill up missing offset samples with silence : Yes
Delete leading and trailing silent blocks   : No
Null samples used in CRC calculations       : Yes
Used interface                              : Installed external ASPI interface
Used output format              : User Defined Encoder
Selected bitrate                : 896 kBit/s
Quality                         : High
Add ID3 tag                     : No
Command line compressor         : D:\utils\wavpack.exe
Additional command line options : -hlm %s
TOC of the extracted CD
     Track |   Start  |  Length  | Start sector | End sector
    ---------------------------------------------------------
        1  |  0:00.00 |  3:17.73 |         0    |    14847
        2  |  3:17.73 |  2:37.58 |     14848    |    26680
        3  |  5:55.56 |  3:42.38 |     26681    |    43368
        4  |  9:38.19 |  3:14.62 |     43369    |    57980
        5  | 12:53.06 |  2:52.26 |     57981    |    70906
        6  | 15:45.32 |  2:58.11 |     70907    |    84267
        7  | 18:43.43 |  4:02.69 |     84268    |   102486
        8  | 22:46.37 |  1:57.28 |    102487    |   111289
        9  | 24:43.65 |  2:52.17 |    111290    |   124206
       10  | 27:36.07 |  2:11.12 |    124207    |   134043
       11  | 29:47.19 |  3:22.14 |    134044    |   149207
       12  | 33:09.33 |  3:05.69 |    149208    |   163151
       13  | 36:15.27 |  3:51.33 |    163152    |   180509
       14  | 40:06.60 |  1:51.08 |    180510    |   188842
       15  | 41:57.68 |  2:12.43 |    188843    |   198785
       16  | 44:10.36 |  2:42.65 |    198786    |   211000
Range status and errors
Selected range
     Filename C:\temp\Frank Sinatra - The Platinum Collection (disc one).wav
     Peak level 99.9 %
     Range quality 100.0 %
     Test CRC 8185C35B
     Copy CRC 8185C35B
     Copy OK
No errors occurred
AccurateRip summary
Track  1  accurately ripped (confidence 13)  [A4A540D8]
Track  2  accurately ripped (confidence 12)  [48B14A67]
Track  3  accurately ripped (confidence 13)  [93FF4DFE]
Track  4  accurately ripped (confidence 12)  [60059F23]
Track  5  accurately ripped (confidence 12)  [19DE9E7F]
Track  6  accurately ripped (confidence 12)  [9F5B44A6]
Track  7  accurately ripped (confidence 12)  [B43136ED]
Track  8  accurately ripped (confidence 12)  [DC2E3A27]
Track  9  accurately ripped (confidence 12)  [6ADAB83C]
Track 10  accurately ripped (confidence 11)  [78376FA9]
Track 11  accurately ripped (confidence 12)  [8EF07924]
Track 12  accurately ripped (confidence 12)  [89AF6E1A]
Track 13  accurately ripped (confidence 12)  [D53C768C]
Track 14  accurately ripped (confidence 12)  [A8BD558C]
Track 15  accurately ripped (confidence 12)  [F8BA1D01]
Track 16  accurately ripped (confidence 11)  [B13F3E2E]
All tracks accurately ripped
End of status report

Отчёт auCDtect&#58;

Код:
-----------------------
DON'T MODIFY THIS FILE
-----------------------
PERFORMER: auCDtect Task Manager, ver. 1.5.1RC6 build 1.5.1.7
Copyright (c) 2008-2010 y-soft. All rights reserved
http://y-soft.org
ANALYZER: auCDtect: CD records authenticity detector, version 0.8.2
Copyright (c) 2004 Oleg Berngardt. All rights reserved.
Copyright (c) 2004 Alexander Djourik. All rights reserved.
FILE: Frank Sinatra - The Platinum Collection (disc one) [2004].wv
  Size: 203951196 Hash: 5BCA9A0CDBE5B98D2CED1FDC8C810DA8 Accuracy: -m8
  Conclusion: CDDA 100%
  Signature: 3AAD4DB71C23E3AD8AAB93E9386D92484C8661ED

CD 2&#58;

Трек лист:
01. Young At Heart (2:52)
02. I Get A Kick Out Of You (2:54)
03. Learnin' The Blues (3:02)
04. My Funny Valentine (2:32)
05. The Lady Is A Tramp (3:15)
06. Let's Get Away From It All (2:10)
07. South Of The Border (2:49)
08. It Happened In Monterey (2:35)
09. You'd Be So Nice To Come Home To (2:03)
10. Come Dance With Me (2:31)
11. September In The Rain (2:58)
12. Cheek To Cheek (3:06)
13. Moonlight In Vermont (3:31)
14. Night And Day (4:00)
15. The Sunny Side Of The Street (2:39)
16. I Could Have Danced All Night (2:41)
Продолжительность – 00:45:37

Отчёт ЕАС&#58;

Код:
Exact Audio Copy V0.99 prebeta 5 from 4. May 2009
EAC extraction logfile from 12. June 2010, 14:23
Frank Sinatra / The Platinum Collection (disc two)
Used drive  : PLEXTOR CD-R   PREMIUM   Adapter: 0  ID: 0
Read mode               : Secure
Utilize accurate stream : Yes
Defeat audio cache      : Yes
Make use of C2 pointers : No
Read offset correction                      : 30
Overread into Lead-In and Lead-Out          : No
Fill up missing offset samples with silence : Yes
Delete leading and trailing silent blocks   : No
Null samples used in CRC calculations       : Yes
Used interface                              : Installed external ASPI interface
Used output format              : User Defined Encoder
Selected bitrate                : 896 kBit/s
Quality                         : High
Add ID3 tag                     : No
Command line compressor         : D:\utils\wavpack.exe
Additional command line options : -hlm %s
TOC of the extracted CD
     Track |   Start  |  Length  | Start sector | End sector
    ---------------------------------------------------------
        1  |  0:00.00 |  2:51.49 |         0    |    12873
        2  |  2:51.49 |  2:53.58 |     12874    |    25906
        3  |  5:45.32 |  3:01.50 |     25907    |    39531
        4  |  8:47.07 |  2:31.58 |     39532    |    50914
        5  | 11:18.65 |  3:15.18 |     50915    |    65557
        6  | 14:34.08 |  2:09.50 |     65558    |    75282
        7  | 16:43.58 |  2:49.09 |     75283    |    87966
        8  | 19:32.67 |  2:35.03 |     87967    |    99594
        9  | 22:07.70 |  2:03.05 |     99595    |   108824
       10  | 24:11.00 |  2:30.62 |    108825    |   120136
       11  | 26:41.62 |  2:58.12 |    120137    |   133498
       12  | 29:39.74 |  3:05.47 |    133499    |   147420
       13  | 32:45.46 |  3:31.10 |    147421    |   163255
       14  | 36:16.56 |  4:00.18 |    163256    |   181273
       15  | 40:16.74 |  2:39.22 |    181274    |   193220
       16  | 42:56.21 |  2:40.49 |    193221    |   205269
       17  | 48:08.70 | 25:49.05 |    216670    |   332849
Range status and errors
Selected range
     Filename C:\temp\Frank Sinatra - The Platinum Collection (disc two).wav
     Peak level 99.9 %
     Range quality 100.0 %
     Test CRC BBB2B46D
     Copy CRC BBB2B46D
     Copy OK
No errors occurred
AccurateRip summary
Track  1  accurately ripped (confidence 3)  [8316936A]
Track  2  accurately ripped (confidence 3)  [57C33E73]
Track  3  accurately ripped (confidence 3)  [01A84EEB]
Track  4  accurately ripped (confidence 2)  [F0486E3E]
Track  5  accurately ripped (confidence 3)  [6A372B1D]
Track  6  accurately ripped (confidence 3)  [11DD785C]
Track  7  accurately ripped (confidence 3)  [C71340D5]
Track  8  accurately ripped (confidence 3)  [616B993E]
Track  9  accurately ripped (confidence 3)  [57873DE8]
Track 10  accurately ripped (confidence 3)  [83631A96]
Track 11  accurately ripped (confidence 3)  [DE25DC4A]
Track 12  accurately ripped (confidence 2)  [0C6D1CB6]
Track 13  accurately ripped (confidence 2)  [1E2783B5]
Track 14  accurately ripped (confidence 2)  [BD5C80BE]
Track 15  accurately ripped (confidence 2)  [705591B9]
Track 16  accurately ripped (confidence 3)  [EDE1FE64]
All tracks accurately ripped
End of status report

Отчёт auCDtect&#58;

Код:
-----------------------
DON'T MODIFY THIS FILE
-----------------------
PERFORMER: auCDtect Task Manager, ver. 1.5.1RC6 build 1.5.1.7
Copyright (c) 2008-2010 y-soft. All rights reserved
http://y-soft.org
ANALYZER: auCDtect: CD records authenticity detector, version 0.8.2
Copyright (c) 2004 Oleg Berngardt. All rights reserved.
Copyright (c) 2004 Alexander Djourik. All rights reserved.
FILE: Frank Sinatra - The Platinum Collection (disc two) [2004].wv
  Size: 204516390 Hash: D24E92E189E1090EDF9915CBAD513FFD Accuracy: -m8
  Conclusion: CDDA 100%
  Signature: 20D1D0586671A0ACA4CA1805A74502E544B64EB0

CD 3&#58;

Трек лист:
01. You Make Me Feel So Young (2:56)
02. Nice 'N' Easy (2:45)
03. Here's That Rainy Day (3:44)
04. Pennies From Heaven (2:42)
05. April In Paris (2:51)
06. From Here To Eternity (3:01)
07. Someone To Watch Over Me (2:57)
08. In The Wee Small Hours Of The Morning (3:02)
09. I Thought About You (2:28)
10. Too Marvelous For Words (2:28)
11. Autumn Leaves (2:53)
12. Dancing In The Dark (2:26)
13. All Of Me (2:08)
14. As Time Goes By (3:16)
15. September Song (4:21)
16. One For My Baby (And One More For The Road) (4:25)
Продолжительность – 00:48:24

Отчёт ЕАС&#58;

Код:
Exact Audio Copy V0.99 prebeta 5 from 4. May 2009
EAC extraction logfile from 12. June 2010, 15:43
Frank Sinatra / The Platinum Collection (disc three)
Used drive  : PLEXTOR CD-R   PREMIUM   Adapter: 0  ID: 0
Read mode               : Secure
Utilize accurate stream : Yes
Defeat audio cache      : Yes
Make use of C2 pointers : No
Read offset correction                      : 30
Overread into Lead-In and Lead-Out          : No
Fill up missing offset samples with silence : Yes
Delete leading and trailing silent blocks   : No
Null samples used in CRC calculations       : Yes
Used interface                              : Installed external ASPI interface
Used output format              : User Defined Encoder
Selected bitrate                : 896 kBit/s
Quality                         : High
Add ID3 tag                     : No
Command line compressor         : D:\utils\wavpack.exe
Additional command line options : -hlm %s
TOC of the extracted CD
     Track |   Start  |  Length  | Start sector | End sector
    ---------------------------------------------------------
        1  |  0:00.00 |  2:55.38 |         0    |    13162
        2  |  2:55.38 |  2:45.32 |     13163    |    25569
        3  |  5:40.70 |  3:43.43 |     25570    |    42337
        4  |  9:24.38 |  2:42.26 |     42338    |    54513
        5  | 12:06.64 |  2:51.00 |     54514    |    67338
        6  | 14:57.64 |  3:00.59 |     67339    |    80897
        7  | 17:58.48 |  2:57.30 |     80898    |    94202
        8  | 20:56.03 |  3:01.44 |     94203    |   107821
        9  | 23:57.47 |  2:28.05 |    107822    |   118926
       10  | 26:25.52 |  2:27.66 |    118927    |   130017
       11  | 28:53.43 |  2:53.12 |    130018    |   143004
       12  | 31:46.55 |  2:26.30 |    143005    |   153984
       13  | 34:13.10 |  2:07.74 |    153985    |   163583
       14  | 36:21.09 |  3:16.34 |    163584    |   178317
       15  | 39:37.43 |  4:21.27 |    178318    |   197919
       16  | 43:58.70 |  4:25.20 |    197920    |   217814
       17  | 50:56.15 | 23:01.60 |    229215    |   332849
Range status and errors
Selected range
     Filename C:\temp\Frank Sinatra - The Platinum Collection (disc three).wav
     Peak level 99.9 %
     Range quality 100.0 %
     Test CRC EE841DBF
     Copy CRC EE841DBF
     Copy OK
No errors occurred
AccurateRip summary
Track  1  accurately ripped (confidence 3)  [153BCB97]
Track  2  accurately ripped (confidence 3)  [EBEA3DAB]
Track  3  accurately ripped (confidence 2)  [F860D167]
Track  4  accurately ripped (confidence 2)  [954A7EE6]
Track  5  accurately ripped (confidence 3)  [B2A2E100]
Track  6  accurately ripped (confidence 3)  [1156DF9F]
Track  7  accurately ripped (confidence 3)  [7486F9FF]
Track  8  accurately ripped (confidence 2)  [D5B94B3C]
Track  9  accurately ripped (confidence 3)  [F882F32E]
Track 10  accurately ripped (confidence 2)  [742ECC40]
Track 11  accurately ripped (confidence 3)  [26878249]
Track 12  accurately ripped (confidence 3)  [ECCD1E95]
Track 13  accurately ripped (confidence 2)  [C7DEF081]
Track 14  accurately ripped (confidence 3)  [ABC538D8]
Track 15  accurately ripped (confidence 3)  [A953E39B]
Track 16  accurately ripped (confidence 3)  [9FA88919]
All tracks accurately ripped
End of status report

Отчёт auCDtect&#58;

Код:
-----------------------
DON'T MODIFY THIS FILE
-----------------------
PERFORMER: auCDtect Task Manager, ver. 1.5.1RC6 build 1.5.1.7
Copyright (c) 2008-2010 y-soft. All rights reserved
http://y-soft.org
ANALYZER: auCDtect: CD records authenticity detector, version 0.8.2
Copyright (c) 2004 Oleg Berngardt. All rights reserved.
Copyright (c) 2004 Alexander Djourik. All rights reserved.
FILE: Frank Sinatra - The Platinum Collection (disc three) [2004].wv
  Size: 210766128 Hash: 2974EB29896B58A2761302423C5479DB Accuracy: -m8
  Conclusion: CDDA 100%
  Signature: 94D1FC30C2621E91AEA34E3FDCA58488B77943F6


[trackeroc.ru].8595.torrent 
Торрент: Зарегистрирован   [ 2015-10-11 15:48 ]

Скачать торрент

24 KB

Статус: проверено
Скачан: 20 раз
Размер: 1012 MB
 


_________________

[Профиль] [ЛС]
Показать сообщения:    
Ответить на тему

Текущее время: Сегодня 18:02

Часовой пояс: GMT + 4



Вы не можете начинать темы
Вы не можете отвечать на сообщения
Вы не можете редактировать свои сообщения
Вы не можете удалять свои сообщения
Вы не можете голосовать в опросах
Вы не можете прикреплять файлы к сообщениям
Вы можете скачивать файлы