Гадкий я 3 / Despicable Me 3 (2017) BDRip [H.264] скачать торрент

Ответить на тему

Статистика раздачи [Обновить пиров]
Размер:  1.87 GB   |    Зарегистрирован:  18 часов   |    Скачан:  0 раз
Сидов:  20  [  0 KB/s  ]   Личеров:  22  [  0 KB/s  ]   Подробная статистика пиров
 
   
 
 
Автор Сообщение

BiOS ®

Стаж: 3 года 5 месяцев

Сообщений: 2013

Откуда: Raccoon City


Пост 04-Сен-2017 12:30

[Цитировать]

Гадкий я 3 / Despicable Me 3 «Такие разные близнецы»- Производство: США, Illumination Entertainment, Universal Pictures
Жанр: Мультфильм, фантастика, боевик, комедия, приключения, семейный
Режиссер: Эрик Гуильон, Кайл Балда, Пьер Коффан
Продюсер: Джанет Хили, Бретт Хоффман, Кристофер Меледандри
Персонажи: Стив Карелл, Кристен Уиг, Трей Паркер, Миранда Косгров, Дэна Гайер, Нев Шаррел, Пьер Коффан, Стив Куган, Джули Эндрюс, Дженни Слейт
Описание:
Грядет третье пришествие. Многодетный суперагент, роковая красотка и бессмертные миньоны на подходе. Готовьтесь. Они будут править миром.
Возраст: 6+ (зрителям, достигшим 6 лет)
Рейтинг MPAA: PG (рекомендуется присутствие родителей)
Дата мировой премьеры: 14 июня 2017
Дата российской премьеры: 29 июня 2017, «UPI»
Релиз от: OlLanDGroup
Продолжительность: 01:29:40
Качество видео: BDRip
Перевод: Дублированный (iTunes)
Субтитры: Английские (SDH)
Видео: AVC/H.264, 1024x428 (16:9), ~2153 Kbps, 23.976 fps
Аудио: AC3, 6 ch, 384 Kbps - Русский
Аудио: AC3, 6 ch, 448 Kbps - Английский

Mediainfo:

Общее
Формат : Matroska
Версия формата : Version 2
Размер файла : 1,87 Гбайт
Продолжительность : 1 ч. 29 м.
Общий поток : 2986 Кбит/сек
Название фильма : Despicable.Me.3.2017 - TorpedoUK
Дата кодирования : UTC 2017-09-20 19:52:38
Программа кодирования : mkvmerge v7.8.0 ('River Man') 32bit built on Apr 3 2015 12:11:22
Библиотека кодирования : libebml v1.3.1 + libmatroska v1.4.2
Видео
Идентификатор : 1
Формат : AVC
Формат/Информация : Advanced Video Codec
Профиль формата : High@L4.1
Параметр CABAC формата : Да
Параметр ReFrames формата : 10 кадров
Идентификатор кодека : V_MPEG4/ISO/AVC
Продолжительность : 1 ч. 29 м.
Битрейт : 2153 Кбит/сек
Ширина : 1024 пикселя
Высота : 428 пикселей
Соотношение сторон : 2,40:1
Режим частоты кадров : Постоянный
Частота кадров : 23,976 (24000/1001) кадра/сек
Цветовое пространство : YUV
Субдискретизация насыщенности : 4:2:0
Битовая глубина : 8 бит
Тип развёртки : Прогрессивная
Бит/(Пиксели*Кадры) : 0.205
Размер потока : 1,31 Гбайт (70%)
Библиотека кодирования : x264 core 146 r2538 121396c
Настройки программы : cabac=1 / ref=10 / deblock=1:-3:-3 / analyse=0x3:0x133 / me=umh / subme=11 / psy=1 / psy_rd=1.00:0.07 / mixed_ref=1 / me_range=48 / chroma_me=1 / trellis=2 / 8x8dct=1 / cqm=0 / deadzone=21,11 / fast_pskip=0 / chroma_qp_offset=-3 / threads=6 / lookahead_threads=1 / sliced_threads=0 / nr=0 / decimate=0 / interlaced=0 / bluray_compat=0 / constrained_intra=0 / bframes=10 / b_pyramid=2 / b_adapt=2 / b_bias=0 / direct=3 / weightb=1 / open_gop=0 / weightp=2 / keyint=240 / keyint_min=23 / scenecut=40 / intra_refresh=0 / rc_lookahead=40 / rc=2pass / mbtree=0 / bitrate=2153 / ratetol=1.0 / qcomp=0.60 / qpmin=0 / qpmax=69 / qpstep=4 / cplxblur=20.0 / qblur=0.5 / vbv_maxrate=50000 / vbv_bufsize=62500 / nal_hrd=none / filler=0 / ip_ratio=1.40 / pb_ratio=1.30 / aq=1:1.00
Язык : English
Default : Да
Forced : Нет
Аудио #1
Идентификатор : 2
Формат : AC-3
Формат/Информация : Audio Coding 3
Расширение режима : CM (complete main)
Параметр Endianness формата : Big
Идентификатор кодека : A_AC3
Продолжительность : 1 ч. 29 м.
Вид битрейта : Постоянный
Битрейт : 384 Кбит/сек
Каналы : 6 каналов
Расположение каналов : Front: L C R, Side: L R, LFE
Частота : 48,0 КГц
Частота кадров : 31,250 кадров/сек (1536 spf)
Битовая глубина : 16 бит
Метод сжатия : С потерями
Размер потока : 246 Мбайт (13%)
Заголовок : iTunes
Язык : Russian
Default : Да
Forced : Нет
Аудио #2
Идентификатор : 3
Формат : AC-3
Формат/Информация : Audio Coding 3
Расширение режима : CM (complete main)
Параметр Endianness формата : Big
Идентификатор кодека : A_AC3
Продолжительность : 1 ч. 29 м.
Вид битрейта : Постоянный
Битрейт : 448 Кбит/сек
Каналы : 6 каналов
Расположение каналов : Front: L C R, Side: L R, LFE
Частота : 48,0 КГц
Частота кадров : 31,250 кадров/сек (1536 spf)
Битовая глубина : 16 бит
Метод сжатия : С потерями
Размер потока : 287 Мбайт (15%)
Заголовок : Original
Язык : English
Default : Нет
Forced : Нет
Текст
Идентификатор : 4
Формат : UTF-8
Идентификатор кодека : S_TEXT/UTF8
Идентификатор кодека/Информация : UTF-8 Plain Text
Заголовок : SDH
Язык : English
Default : Нет
Forced : Нет
Меню
00:00:00.000 : en:00:00:00.000
00:03:06.103 : en:00:03:06.103
00:07:57.977 : en:00:07:57.977
00:11:12.839 : en:00:11:12.839
00:16:15.766 : en:00:16:15.766
00:20:07.498 : en:00:20:07.498
00:24:07.988 : en:00:24:07.988
00:28:57.069 : en:00:28:57.069
00:32:55.348 : en:00:32:55.348
00:39:01.839 : en:00:39:01.839
00:42:44.187 : en:00:42:44.187
00:46:47.179 : en:00:46:47.179
00:50:55.636 : en:00:50:55.636
00:56:12.077 : en:00:56:12.077
01:00:02.265 : en:01:00:02.265
01:05:41.229 : en:01:05:41.229
01:10:14.544 : en:01:10:14.544
01:14:33.761 : en:01:14:33.761
01:19:29.723 : en:01:19:29.723
01:21:56.995 : en:01:21:56.995
-Скриншоты:


Смотреть онлайн


[trackeroc.ru].21986.torrent 
Торрент: Зарегистрирован   [ Вчера 17:25 ]

Скачать торрент

20 KB

Статус: проверено
Скачан: 12 раз
Размер: 1.87 GB
 

Admin (04-сен-17)
Похожие торренты
Форум Тема Автор Размер
Зарубежные Гадкий я 3 / Despicable Me 3 (2017) WEBRip [H.264/1080p-LQ] [AD] Admin 3.33 GB

_________________
[Профиль] [ЛС]
Показать сообщения:    
Ответить на тему

Текущее время: Сегодня 12:11

Часовой пояс: GMT + 4



Вы не можете начинать темы
Вы не можете отвечать на сообщения
Вы не можете редактировать свои сообщения
Вы не можете удалять свои сообщения
Вы не можете голосовать в опросах
Вы не можете прикреплять файлы к сообщениям
Вы можете скачивать файлы