Гардемарины-III (1992) DVDRip [H.264]

Ответить на тему

Статистика раздачи [Обновить пиров]
Размер:  1.34 GB   |    Зарегистрирован:  1 год 1 месяц   |    Скачан:  2 раза

Полного источника не было: 29 дней

 
 
 
 
Автор Сообщение

BiOS ®

Стаж: 2 года 7 месяцев

Сообщений: 1732

Откуда: Raccoon City


Пост 19-Окт-2015 08:06

[Цитировать]

Гардемарины-III - Год выпуска: 1992
Жанр: Приключения
Описание фильма:
Идет семилетняя война, русские солдаты вынуждены сражаться за интересы Франции и Австрии против Пруссии. Гардемарины продолжают самоотверженно служить Родине. Один — в экспедиции, другой — при дворе, а третий послан в Венецию, передать шкатулку с украшением. На самом деле, в шкатулке послание, от которого зависят дальнейшие судьбы Европы и России!
Режиссер: Светлана Дружинина
Актеры: Сергей Жигунов, Дмитрий Харатьян, Владимир Шевельков, Татьяна Лютаева, Михаил Боярский, Евгений Евстигнеев, Владислав Стржельчик, Ольга Машная, Александр Абдулов, Владимир Стеклов, Игорь Ясулович, Александр Пашутин, Елена Цыплакова, Валерий Афанасьев, Иннокентий Смоктуновский, Владимир Балон, Людмила Нильская, Виктор Борцов
Продолжительность: 01:41:27
Качество видео: DVDRip
Видеокодек: MPEG-4 AVC/H.264
Битрейт видео: ~1500 Kbps
Размер кадра: 720x536
Аудиокодек: AC3 5.1
Битрейт аудио: 384 kbps

MediaInfo

Код:
General
Unique ID : 235590851720205438873602391487099515844 (0xB13D25C8CBF10C73BC7AF713930D33C4)
Complete name : Гардемарины-III.mkv
Format : Matroska
Format version : Version 4 / Version 2
File size : 1.34 GiB
Duration : 1h 41mn
Overall bit rate : 1 892 Kbps
Movie name : Гардемарины-III (rip by smithland)
Encoded date : UTC 2010-02-22 21:41:31
Writing application : mkvmerge v5.9.0 ('On The Loose')
Writing library : libebml v1.3.0 + libmatroska v1.4.0
Attachements : cover.jpg
Video
ID : 1
Format : AVC
Format/Info : Advanced Video Codec
Format profile : High@L4.0
Format settings, CABAC : Yes
Format settings, ReFrames : 10 frames
Codec ID : V_MPEG4/ISO/AVC
Duration : 1h 41mn
Bit rate : 1 500 Kbps
Width : 720 pixels
Height : 536 pixels
Display aspect ratio : 4:3
Frame rate mode : Constant
Frame rate : 25.000 fps
Color space : YUV
Chroma subsampling : 4:2:0
Bit depth : 8 bits
Scan type : Progressive
Bits/(Pixel*Frame) : 0.155
Stream size : 1.04 GiB (78%)
Writing library : x264 core 130 r2273 b3065e6
Encoding settings : cabac=1 / ref=10 / deblock=1:-1:0 / analyse=0x3:0x133 / me=umh / subme=11 / psy=1 / psy_rd=1.25:0.33 / mixed_ref=1 / me_range=28 / chroma_me=1 / trellis=2 / 8x8dct=1 / cqm=0 / deadzone=21,11 / fast_pskip=0 / chroma_qp_offset=-4 / threads=12 / lookahead_threads=1 / sliced_threads=0 / nr=0 / decimate=0 / interlaced=0 / bluray_compat=0 / constrained_intra=0 / bframes=8 / b_pyramid=2 / b_adapt=1 / b_bias=0 / direct=1 / weightb=1 / open_gop=1 / weightp=2 / keyint=250 / keyint_min=25 / scenecut=40 / intra_refresh=0 / rc_lookahead=50 / rc=abr / mbtree=1 / bitrate=1500 / ratetol=1.0 / qcomp=0.60 / qpmin=0 / qpmax=69 / qpstep=4 / ip_ratio=1.41 / aq=1:1.00
Language : Russian
Default : Yes
Forced : Yes
Audio
ID : 2
Format : AC-3
Format/Info : Audio Coding 3
Mode extension : CM (complete main)
Format settings, Endianness : Big
Codec ID : A_AC3
Duration : 1h 41mn
Bit rate mode : Constant
Bit rate : 384 Kbps
Channel(s) : 6 channels
Channel positions : Front: L C R, Side: L R, LFE
Sampling rate : 48.0 KHz
Bit depth : 16 bits
Compression mode : Lossy
Stream size : 279 MiB (20%)
Language : Russian
Default : Yes
Forced : Yes
Скриншоты:


Смотреть онлайн

[trackeroc.ru].8949.torrent 
Торрент: Зарегистрирован   [ 2015-10-19 08:08 ]

Скачать торрент

108 KB

Статус: проверено
Скачан: 28 раз
Размер: 1.34 GB
 

Admin (19-окт-15)
Похожие торренты
Форум Тема Автор Размер
Российские сериалы Штрафбат (2004) DVDRip [H.264] (серии 1-11 из 11) BiOS 7.67 GB
Зарубежные Мультсериалы Визионеры - Рыцари Магического Света / Visionaries - Knights Of The Magical Light (1987) DVDRip (Сезоны 1, серий 1-13 из 13) BiOS 2.49 GB
Комедии Экспресс миллионеров / Шанхайский экспресс / Millionaires Express / Shanghai express (1986) DVDRip BiOS 1.46 GB
Комедии Девственницы Семи морей / Каратэ, поцелуи, блондиночки / Yang chi / Karate, Küsse, blonde Katzen (1974) DVDRip [H.264] [VO] BiOS 1.46 GB
Комедии На Дерибасовской хорошая погода, или На Брайтон-Бич опять идут дожди (1992) DVDRip BiOS 1.46 GB

_________________
[Профиль] [ЛС]
Показать сообщения:    
Ответить на тему

Текущее время: Сегодня 02:00

Часовой пояс: GMT + 4



Вы не можете начинать темы
Вы не можете отвечать на сообщения
Вы не можете редактировать свои сообщения
Вы не можете удалять свои сообщения
Вы не можете голосовать в опросах
Вы не можете прикреплять файлы к сообщениям
Вы можете скачивать файлы