Гардемарины, вперед! (1987) DVDRip [H.264]

Ответить на тему

Статистика раздачи [Обновить пиров]
Скачали
Размер:  3.36 GB   |    Зарегистрирован:  1 год 1 месяц   |    Скачан:  4 раза

Полного источника не было: 2 дня 1 час

 
 
 
 
Автор Сообщение

BiOS ®

Стаж: 2 года 7 месяцев

Сообщений: 1730

Откуда: Raccoon City


Пост 19-Окт-2015 07:50

[Цитировать]

Гардемарины, вперед! - Год выпуска: 1987
Жанр: Приключения
Описание фильма:
Сюжет картины переносит зрителей во времена дворцовых переворотов. Тогда в беспощадной борьбе за власть возносились и гибли целые династии, ломались судьбы временщиков, цареубийцы восходили на трон.
Трое молодых курсантов навигацкой школы, основанной Петром I в Москве, по разным причинам убегают: кто — в Петербург, кто — в Кронштадт. Невольно они становятся соучастниками заговора, организованного против молодой Императрицы.
Режиссер: Светлана Дружинина
Актеры: Сергей Жигунов, Дмитрий Харатьян, Владимир Шевельков, Татьяна Лютаева, Михаил Боярский, Евгений Евстигнеев, Владислав Стржельчик, Ольга Машная, Иннокентий Смоктуновский, Виктор Павлов, Александр Абдулов, Семён Фарада, Александр Пашутин
Продолжительность: 04:42:57 (4 серии)
Качество видео: DVDRip
Видеокодек: MPEG-4 AVC/H.264
Битрейт видео: ~1255 Kbps
Размер кадра: 720x536
Аудиокодек: AC3 5.1
Битрейт аудио: 384 Kbps

MediaInfo

General
Unique ID : 219633818838310883211277434265084677245 (0xA53BEF5255C2B4A0A50DF09B4230CC7D)
Complete name : Гардемарины Вперёд\01.mkv
Format : Matroska
Format version : Version 4 / Version 2
File size : 902 MiB
Duration : 1h 16mn
Overall bit rate : 1 652 Kbps
Movie name : Гардемарины Вперёд - 1 серия (rip by smithland)
Encoded date : UTC 2010-02-22 21:41:31
Writing application : mkvmerge v5.9.0 ('On The Loose')
Writing library : libebml v1.3.0 + libmatroska v1.4.0
Cover : Yes
Video
ID : 1
Format : AVC
Format/Info : Advanced Video Codec
Format profile : High@L4.0
Format settings, CABAC : Yes
Format settings, ReFrames : 10 frames
Codec ID : V_MPEG4/ISO/AVC
Duration : 1h 16mn
Bit rate : 1 255 Kbps
Width : 720 pixels
Height : 536 pixels
Display aspect ratio : 4:3
Frame rate mode : Constant
Frame rate : 25.000 fps
Color space : YUV
Chroma subsampling : 4:2:0
Bit depth : 8 bits
Scan type : Progressive
Bits/(Pixel*Frame) : 0.130
Stream size : 674 MiB (75%)
Writing library : x264 core 130 r2273 b3065e6
Encoding settings : cabac=1 / ref=10 / deblock=1:-1:0 / analyse=0x3:0x133 / me=umh / subme=11 / psy=1 / psy_rd=1.35:0.40 / mixed_ref=1 / me_range=28 / chroma_me=1 / trellis=2 / 8x8dct=1 / cqm=0 / deadzone=21,11 / fast_pskip=0 / chroma_qp_offset=-4 / threads=12 / lookahead_threads=1 / sliced_threads=0 / nr=0 / decimate=0 / interlaced=0 / bluray_compat=0 / constrained_intra=0 / bframes=9 / b_pyramid=2 / b_adapt=1 / b_bias=0 / direct=1 / weightb=1 / open_gop=1 / weightp=2 / keyint=250 / keyint_min=25 / scenecut=40 / intra_refresh=0 / rc_lookahead=50 / rc=abr / mbtree=1 / bitrate=1255 / ratetol=1.0 / qcomp=0.60 / qpmin=0 / qpmax=69 / qpstep=4 / ip_ratio=1.41 / aq=1:1.00
Language : Russian
Default : Yes
Forced : Yes
Color primaries : Generic film
Audio
ID : 2
Format : AC-3
Format/Info : Audio Coding 3
Mode extension : CM (complete main)
Format settings, Endianness : Big
Codec ID : A_AC3
Duration : 1h 16mn
Bit rate mode : Constant
Bit rate : 384 Kbps
Channel(s) : 6 channels
Channel positions : Front: L C R, Side: L R, LFE
Sampling rate : 48.0 KHz
Bit depth : 16 bits
Compression mode : Lossy
Stream size : 210 MiB (23%)
Language : Russian
Default : Yes
Forced : Yes
****************************************************************************************************
General
Unique ID : 222067741598298100179767733050918727627 (0xA710B0FA859BAFFDB7F8AF7A01C26FCB)
Complete name : Гардемарины Вперёд\02.mkv
Format : Matroska
Format version : Version 4 / Version 2
File size : 868 MiB
Duration : 1h 10mn
Overall bit rate : 1 725 Kbps
Movie name : Гардемарины Вперёд - 2 серия (rip by smithland)
Encoded date : UTC 2010-02-22 21:41:31
Writing application : mkvmerge v5.9.0 ('On The Loose')
Writing library : libebml v1.3.0 + libmatroska v1.4.0
Attachements : cover.png
Video
ID : 1
Format : AVC
Format/Info : Advanced Video Codec
Format profile : High@L4.0
Format settings, CABAC : Yes
Format settings, ReFrames : 10 frames
Codec ID : V_MPEG4/ISO/AVC
Duration : 1h 10mn
Bit rate : 1 330 Kbps
Width : 720 pixels
Height : 536 pixels
Display aspect ratio : 4:3
Frame rate mode : Constant
Frame rate : 25.000 fps
Color space : YUV
Chroma subsampling : 4:2:0
Bit depth : 8 bits
Scan type : Progressive
Bits/(Pixel*Frame) : 0.138
Stream size : 657 MiB (76%)
Writing library : x264 core 130 r2273 b3065e6
Encoding settings : cabac=1 / ref=10 / deblock=1:-1:0 / analyse=0x3:0x133 / me=umh / subme=11 / psy=1 / psy_rd=1.35:0.40 / mixed_ref=1 / me_range=28 / chroma_me=1 / trellis=2 / 8x8dct=1 / cqm=0 / deadzone=21,11 / fast_pskip=0 / chroma_qp_offset=-4 / threads=12 / lookahead_threads=1 / sliced_threads=0 / nr=0 / decimate=0 / interlaced=0 / bluray_compat=0 / constrained_intra=0 / bframes=9 / b_pyramid=2 / b_adapt=1 / b_bias=0 / direct=1 / weightb=1 / open_gop=1 / weightp=2 / keyint=250 / keyint_min=25 / scenecut=40 / intra_refresh=0 / rc_lookahead=50 / rc=abr / mbtree=1 / bitrate=1330 / ratetol=1.0 / qcomp=0.60 / qpmin=0 / qpmax=69 / qpstep=4 / ip_ratio=1.41 / aq=1:1.00
Language : Russian
Default : Yes
Forced : Yes
Color primaries : Generic film
Audio
ID : 2
Format : AC-3
Format/Info : Audio Coding 3
Mode extension : CM (complete main)
Format settings, Endianness : Big
Codec ID : A_AC3
Duration : 1h 10mn
Bit rate mode : Constant
Bit rate : 384 Kbps
Channel(s) : 6 channels
Channel positions : Front: L C R, Side: L R, LFE
Sampling rate : 48.0 KHz
Bit depth : 16 bits
Compression mode : Lossy
Stream size : 193 MiB (22%)
Language : Russian
Default : Yes
Forced : Yes
**************************************************************************************************
General
Unique ID : 223853652890507213137084924244149261298 (0xA868A534198A9739999C9826A7F9D3F2)
Complete name : Гардемарины Вперёд\03.mkv
Format : Matroska
Format version : Version 4 / Version 2
File size : 775 MiB
Duration : 1h 3mn
Overall bit rate : 1 720 Kbps
Movie name : Гардемарины Вперёд - 3 серия (rip by smithland)
Encoded date : UTC 2010-02-22 21:41:31
Writing application : mkvmerge v5.9.0 ('On The Loose')
Writing library : libebml v1.3.0 + libmatroska v1.4.0
Attachements : cover.png
Video
ID : 1
Format : AVC
Format/Info : Advanced Video Codec
Format profile : High@L4.0
Format settings, CABAC : Yes
Format settings, ReFrames : 10 frames
Codec ID : V_MPEG4/ISO/AVC
Duration : 1h 3mn
Bit rate : 1 335 Kbps
Width : 720 pixels
Height : 536 pixels
Display aspect ratio : 4:3
Frame rate mode : Constant
Frame rate : 25.000 fps
Color space : YUV
Chroma subsampling : 4:2:0
Bit depth : 8 bits
Scan type : Progressive
Bits/(Pixel*Frame) : 0.138
Stream size : 587 MiB (76%)
Writing library : x264 core 130 r2273 b3065e6
Encoding settings : cabac=1 / ref=10 / deblock=1:-1:0 / analyse=0x3:0x133 / me=umh / subme=11 / psy=1 / psy_rd=1.35:0.40 / mixed_ref=1 / me_range=28 / chroma_me=1 / trellis=2 / 8x8dct=1 / cqm=0 / deadzone=21,11 / fast_pskip=0 / chroma_qp_offset=-4 / threads=12 / lookahead_threads=1 / sliced_threads=0 / nr=0 / decimate=0 / interlaced=0 / bluray_compat=0 / constrained_intra=0 / bframes=9 / b_pyramid=2 / b_adapt=1 / b_bias=0 / direct=1 / weightb=1 / open_gop=1 / weightp=2 / keyint=250 / keyint_min=25 / scenecut=40 / intra_refresh=0 / rc_lookahead=50 / rc=abr / mbtree=1 / bitrate=1335 / ratetol=1.0 / qcomp=0.60 / qpmin=0 / qpmax=69 / qpstep=4 / ip_ratio=1.41 / aq=1:1.00
Language : Russian
Default : Yes
Forced : Yes
Color primaries : Generic film
Audio
ID : 2
Format : AC-3
Format/Info : Audio Coding 3
Mode extension : CM (complete main)
Format settings, Endianness : Big
Codec ID : A_AC3
Duration : 1h 3mn
Bit rate mode : Constant
Bit rate : 384 Kbps
Channel(s) : 6 channels
Channel positions : Front: L C R, Side: L R, LFE
Sampling rate : 48.0 KHz
Bit depth : 16 bits
Compression mode : Lossy
Stream size : 173 MiB (22%)
Language : Russian
Default : Yes
Forced : Yes
******************************************************************************************
General
Unique ID : 187556962651739343973458695779035522045 (0x8D1A28356843159983707BD833D623FD)
Complete name : Гардемарины Вперёд\04.mkv
Format : Matroska
Format version : Version 4 / Version 2
File size : 895 MiB
Duration : 1h 13mn
Overall bit rate : 1 708 Kbps
Movie name : Гардемарины Вперёд - 4 серия (rip by smithland)
Encoded date : UTC 2010-02-22 21:41:31
Writing application : mkvmerge v5.9.0 ('On The Loose')
Writing library : libebml v1.3.0 + libmatroska v1.4.0
Attachements : cover.png
Video
ID : 1
Format : AVC
Format/Info : Advanced Video Codec
Format profile : High@L4.0
Format settings, CABAC : Yes
Format settings, ReFrames : 10 frames
Codec ID : V_MPEG4/ISO/AVC
Duration : 1h 13mn
Bit rate : 1 320 Kbps
Width : 720 pixels
Height : 536 pixels
Display aspect ratio : 4:3
Frame rate mode : Constant
Frame rate : 25.000 fps
Color space : YUV
Chroma subsampling : 4:2:0
Bit depth : 8 bits
Scan type : Progressive
Bits/(Pixel*Frame) : 0.137
Stream size : 676 MiB (76%)
Writing library : x264 core 130 r2273 b3065e6
Encoding settings : cabac=1 / ref=10 / deblock=1:-1:0 / analyse=0x3:0x133 / me=umh / subme=11 / psy=1 / psy_rd=1.35:0.40 / mixed_ref=1 / me_range=28 / chroma_me=1 / trellis=2 / 8x8dct=1 / cqm=0 / deadzone=21,11 / fast_pskip=0 / chroma_qp_offset=-4 / threads=12 / lookahead_threads=1 / sliced_threads=0 / nr=0 / decimate=0 / interlaced=0 / bluray_compat=0 / constrained_intra=0 / bframes=9 / b_pyramid=2 / b_adapt=1 / b_bias=0 / direct=1 / weightb=1 / open_gop=1 / weightp=2 / keyint=250 / keyint_min=25 / scenecut=40 / intra_refresh=0 / rc_lookahead=50 / rc=abr / mbtree=1 / bitrate=1320 / ratetol=1.0 / qcomp=0.60 / qpmin=0 / qpmax=69 / qpstep=4 / ip_ratio=1.41 / aq=1:1.00
Language : Russian
Default : Yes
Forced : Yes
Color primaries : Generic film
Audio
ID : 2
Format : AC-3
Format/Info : Audio Coding 3
Mode extension : CM (complete main)
Format settings, Endianness : Big
Codec ID : A_AC3
Duration : 1h 13mn
Bit rate mode : Constant
Bit rate : 384 Kbps
Channel(s) : 6 channels
Channel positions : Front: L C R, Side: L R, LFE
Sampling rate : 48.0 KHz
Bit depth : 16 bits
Compression mode : Lossy
Stream size : 201 MiB (22%)
Language : Russian
Default : Yes
Forced : Yes
Скриншоты:



Смотреть онлайн

[trackeroc.ru].8947.torrent 
Торрент: Зарегистрирован   [ 2015-10-19 07:51 ]

Скачать торрент

270 KB

Статус: проверено
Скачан: 21 раз
Размер: 3.36 GB
 

Admin (19-окт-15)
Похожие торренты
Форум Тема Автор Размер
Зарубежные Мультсериалы Визионеры - Рыцари Магического Света / Visionaries - Knights Of The Magical Light (1987) DVDRip (Сезоны 1, серий 1-13 из 13) BiOS 2.49 GB
Боевики Смертельное оружие / Lethal Weapon (1987) BDRip [H.264] BiOS 2.89 GB
Зарубежные Мультсериалы Симпсоны / The Simpsons + Симпсоны на Шоу Трейси Ульман / Simpsons The Tracey Ullman Shorts (1987-2015) TVRip / WEB-DLRip (1-26 сезон, 1-554 серия из 554) BiOS 141.14 GB
Отечественные Мультсериалы Кот Леопольд (1987) DVDRip (10 серий) BiOS 1.48 GB
Сasual games, Тайм менеджмент Weather Lord 5: Following the Princess Collectors Edition/Повелитель погоды 5.Вперед, за принцессой! (2015) (Аlawar.ru) (RUS) HOPE 764 MB

_________________
[Профиль] [ЛС]
Показать сообщения:    
Ответить на тему

Текущее время: Сегодня 22:33

Часовой пояс: GMT + 4



Вы не можете начинать темы
Вы не можете отвечать на сообщения
Вы не можете редактировать свои сообщения
Вы не можете удалять свои сообщения
Вы не можете голосовать в опросах
Вы не можете прикреплять файлы к сообщениям
Вы можете скачивать файлы